Начать новую тему Ответить на тему
Статистика раздачи
Размер: 361.86 МБ | Добавлен: 26 июн 2020, 17:18 | Скачали: 0
Сидеров: 0  [0 байт/сек]    Личеров: 0  [0 байт/сек]
Пред. тема | След. тема 

Автор
Сообщение

СообщениеДобавлено: 26 июн 2020, 17:18 

Ответить с цитатой 

Infekktion - New Virus
Жанр: EBM, Industrial, Electro
Год выпуска диска: 2001
Производитель диска: Germany
Аудио кодек: FLAC
Тип рипа: image+.cue
Битрейт аудио: lossless
Продолжительность: 53:46
Трэклист:
1 Till I Die (4:34)
2 Braindead (4:37)
3 Your Master (4:20)
4 Trägheit (3:32)
5 Herzschlag (6:22)
6 Hopeless (3:21)
7 Love The Machines (4:06)
8 Pain (3:48)
9 Purer Neid (7:21)
10 You (4:15)
11 Herzschlag (Dust Of Basement Mix) (3:51)
Remix - Dust Of Basement, The
12 Till I Die (Effected Mix by Generated X-Ed & Axel K) (3:36)
Remix - Axel K. , Generated X-ed
Доп. информация:
Код:
Exact Audio Copy V0.99 prebeta 4 from 23. January 2008
Отчёт EAC об извлечении, выполненном 12. марта 2009, 0:12
Infekktion / New Virus
Дисковод: MATSHITAUJ-842D   Adapter: 0  ID: 0
Режим чтения                 : Достоверность
Использование точного потока : Да
Отключение кэша аудио        : Да
Использование указателей C2  : Нет
Коррекция смещения при чтении                     : 102
Способность читать области Lead-in и Lead-out     : Нет
Заполнение пропущенных сэмплов тишиной            : Да
Удаление блоков с тишиной в начале и конце        : Нет
При вычислениях CRC использовались нулевые сэмплы : Да
Интерфейс                                         : Встроенный Win32-интерфейс для Win NT/2000
Выходной формат          : Пользовательский кодировщик
Выбранный битрейт        : 768 kBit/s
Качество                 : Высокий
Добавление ID3-тэга      : Нет
Утилита сжатия           : C:\Program Files\Exact Audio Copy\FLAC\FLAC.EXE
Дополнительные параметры : -6 -V -T "ARTIST=%a" -T "TITLE=%t" -T "ALBUM=%g" -T "DATE=%y" -T "TRACKNUMBER=%n" -T "GENRE=%m" -T "COMMENT=%e" %s -o %d
TOC извлечённого CD
     Трек |   Старт  | Длительность | Начальный сектор | Конечный сектор
    ---------------------------------------------------------------------
       1  |  0:00.00 |    4:34.14   |           0      |      20563
       2  |  4:34.14 |    4:36.57   |       20564      |      41320
       3  |  9:10.71 |    4:20.36   |       41321      |      60856
       4  | 13:31.32 |    3:32.32   |       60857      |      76788
       5  | 17:03.64 |    6:22.41   |       76789      |     105479
       6  | 23:26.30 |    3:21.34   |      105480      |     120588
       7  | 26:47.64 |    4:06.01   |      120589      |     139039
       8  | 30:53.65 |    3:48.33   |      139040      |     156172
       9  | 34:42.23 |    7:21.18   |      156173      |     189265
      10  | 42:03.41 |    4:15.09   |      189266      |     208399
      11  | 46:18.50 |    3:51.08   |      208400      |     225732
      12  | 50:09.58 |    3:36.65   |      225733      |     241997
Характеристики диапазона извлечения и сообщения об ошибках
Выбранный диапазон
     Имя файла C:\Documents and Settings\Administrator\Desktop\P2P\Шара\Music\Infekktion - New Virus\Infekktion - New Virus.wav
     Пиковый уровень 100.0 %
     Качество диапазона 100.0 %
     CRC теста 6D12921C
     CRC копии 6D12921C
     Копирование... OK
Ошибок не произошло
Конец отчёта
Правила, инструкции, FAQ!!!
Торрент  Добавлен [26 июн 2020, 17:18] Скачать торрент Магнет ссылка
Скачать торрент
[ Размер 14.78 КБ / Просмотров 9 ]

Статус
Проверен 
 
Размер  361.86 МБ
Приватный: Нет (DHT включён)
.torrent скачан  0
 


     Отправить личное сообщение
   
Страница 1 из 1
Показать сообщения за:  Поле сортировки  
Начать новую тему Ответить на тему


Сейчас этот форум просматривают: нет зарегистрированных пользователей и гости: 0


Вы не можете начинать темы
Вы не можете отвечать на сообщения
Вы не можете редактировать свои сообщения
Вы не можете удалять свои сообщения
Вы не можете добавлять вложения

Перейти:  
cron