Начать новую тему Ответить на тему
Статистика раздачи
Размер: 418.41 МБ | Добавлен: 26 июн 2020, 17:59 | Скачали: 0
Сидеров: 0  [0 байт/сек]    Личеров: 0  [0 байт/сек]
Пред. тема | След. тема 

Автор
Сообщение

СообщениеДобавлено: 26 июн 2020, 17:59 

Ответить с цитатой 

Gracious Shades ‎– Inoculation Of The Media
Жанр: EBM, Industrial, Electro
Носитель: CD
Страна-производитель диска (релиза): USA
Год издания: 1993
Издатель (лейбл): 21st Circuitry
Номер по каталогу: 21C.CD04
Страна исполнителя (группы): USA
Аудиокодек: FLAC (*.flac)
Тип рипа: image+.cue
Продолжительность: 73:27
Источник: собственный рип
Наличие сканов в содержимом раздачи: да
Треклист:
1 He Used A Gun 1:44
2 Nightmares 2:46
3 Kingpin 2:39
4 Let Me Out 4:12
5 Channel 10 2:11
6 I Heard A Wise Man Say 4:18
7 Upon The White Water 3:44
8 I'm Fine 3:18
9 What Are You Saying 2:13
10 Metamorphose 4:11
11 Leave Me The Fuck Alone 2:38
12 Masturbation 3:38
13 Frame Of Mind 2:10
14 Mind Rape 5:14
15 Me Nothing 3:29
16 Schizophrenia 3:59
17 Dianna 3:06
(Psilocybin Tracks)
18 Psilocybin 1 1:06
19 Psilocybin 2 6:26
20 Psilocybin 3 3:29
21 Psilocybin 4 1:01
22 Psilocybin 5 1:42
23 Psilocybin 6 3:46
Код:
PERFORMER "Gracious Shades"
TITLE "Inoculation Of The Media"
FILE "Gracious Shades - Inoculation Of The Media.flac" WAVE
  TRACK 01 AUDIO
    TITLE "He Used A Gun"
    PERFORMER "Gracious Shades"
    INDEX 01 00:00:00
  TRACK 02 AUDIO
    TITLE "Nightmares"
    PERFORMER "Gracious Shades"
    INDEX 01 01:44:00
  TRACK 03 AUDIO
    TITLE "Kingpin"
    PERFORMER "Gracious Shades"
    INDEX 01 04:30:00
  TRACK 04 AUDIO
    TITLE "Let Me Out"
    PERFORMER "Gracious Shades"
    INDEX 01 07:06:00
  TRACK 05 AUDIO
    TITLE "Channel 10"
    PERFORMER "Gracious Shades"
    INDEX 01 11:19:00
  TRACK 06 AUDIO
    TITLE "I Heard A Wise Man Say"
    PERFORMER "Gracious Shades"
    INDEX 01 13:30:00
  TRACK 07 AUDIO
    TITLE "Upon The White Water"
    PERFORMER "Gracious Shades"
    INDEX 01 17:48:00
  TRACK 08 AUDIO
    TITLE "I'm Fine"
    PERFORMER "Gracious Shades"
    INDEX 01 21:33:00
  TRACK 09 AUDIO
    TITLE "What Are You Saying"
    PERFORMER "Gracious Shades"
    INDEX 01 24:52:00
  TRACK 10 AUDIO
    TITLE "Metamorphose"
    PERFORMER "Gracious Shades"
    INDEX 01 27:06:00
  TRACK 11 AUDIO
    TITLE "Leave Me The Fuck Alone"
    PERFORMER "Gracious Shades"
    INDEX 01 31:17:00
  TRACK 12 AUDIO
    TITLE "Masturbation"
    PERFORMER "Gracious Shades"
    INDEX 01 33:55:00
  TRACK 13 AUDIO
    TITLE "Frame Of Mind"
    PERFORMER "Gracious Shades"
    INDEX 01 37:33:00
  TRACK 14 AUDIO
    TITLE "Mind Rape"
    PERFORMER "Gracious Shades"
    INDEX 01 39:44:00
  TRACK 15 AUDIO
    TITLE "Me Nothing"
    PERFORMER "Gracious Shades"
    INDEX 01 44:58:00
  TRACK 16 AUDIO
    TITLE "Schizophrenia"
    PERFORMER "Gracious Shades"
    INDEX 01 48:28:00
  TRACK 17 AUDIO
    TITLE "Dianna"
    PERFORMER "Gracious Shades"
    INDEX 01 52:27:00
  TRACK 18 AUDIO
    TITLE "Psilocybin 1"
    PERFORMER "Gracious Shades"
    INDEX 01 55:33:00
  TRACK 19 AUDIO
    TITLE "Psilocybin 2"
    PERFORMER "Gracious Shades"
    INDEX 01 56:40:00
  TRACK 20 AUDIO
    TITLE "Psilocybin 3"
    PERFORMER "Gracious Shades"
    INDEX 01 63:07:00
  TRACK 21 AUDIO
    TITLE "Psilocybin 4"
    PERFORMER "Gracious Shades"
    INDEX 01 66:37:00
  TRACK 22 AUDIO
    TITLE "Psilocybin 5"
    PERFORMER "Gracious Shades"
    INDEX 01 67:39:00
  TRACK 23 AUDIO
    TITLE "Psilocybin 6"
    PERFORMER "Gracious Shades"
    INDEX 01 69:22:00
Код:
foobar2000 1.4 / Замер динамического диапазона (DR) 1.1.1
Дата отчёта:  2019-09-12 21:18:27
--------------------------------------------------------------------------------
Анализ:   Gracious Shades / Inoculation Of The Media
--------------------------------------------------------------------------------
DR         РџРёРєРё         RMS           РџСЂРѕРґРѕР»Р¶РёС‚ельность трека
--------------------------------------------------------------------------------
DR9       -7.25 РґР‘   -18.88 РґР‘      1:44 01-He Used A Gun
DR10      -2.34 РґР‘   -14.81 РґР‘      2:46 02-Nightmares
DR12      -3.09 РґР‘   -16.50 РґР‘      2:36 03-Kingpin
DR11      -2.60 РґР‘   -15.46 РґР‘      4:13 04-Let Me Out
DR12      -3.21 РґР‘   -16.31 РґР‘      2:11 05-Channel 10
DR14      -1.98 РґР‘   -18.59 РґР‘      4:18 06-I Heard A Wise Man Say
DR10      -8.68 РґР‘   -21.39 РґР‘      3:45 07-Upon The White Water
DR13      -3.24 РґР‘   -19.69 РґР‘      3:19 08-I'm Fine
DR11      -6.35 РґР‘   -19.48 РґР‘      2:14 09-What Are You Saying
DR13      -3.55 РґР‘   -18.35 РґР‘      4:11 10-Metamorphose
DR11      -3.99 РґР‘   -17.71 РґР‘      2:38 11-Leave Me The Fuck Alone
DR11      -2.82 РґР‘   -16.35 РґР‘      3:38 12-Masturbation
DR12      -2.18 РґР‘   -17.13 РґР‘      2:11 13-Frame Of Mind
DR12      -2.20 РґР‘   -18.37 РґР‘      5:14 14-Mind Rape
DR11      -2.98 РґР‘   -15.89 РґР‘      3:30 15-Me Nothing
DR13      -6.63 РґР‘   -22.37 РґР‘      3:59 16-Schizophrenia
DR12      -1.82 РґР‘   -16.17 РґР‘      3:06 17-Dianna
DR11     -10.23 РґР‘   -22.86 РґР‘      1:07 18-Psilocybin 1
DR10      -1.88 РґР‘   -15.36 РґР‘      6:27 19-Psilocybin 2
DR13      -3.14 РґР‘   -18.71 РґР‘      3:30 20-Psilocybin 3
DR11      -4.98 РґР‘   -21.20 РґР‘      1:02 21-Psilocybin 4
DR10      -0.96 РґР‘   -12.73 РґР‘      1:43 22-Psilocybin 5
DR12      -2.15 РґР‘   -17.04 РґР‘      3:49 23-Psilocybin 6
--------------------------------------------------------------------------------
Количество треков: 23
Реальные значения DR: DR11
Частота:   44100 Гц
Каналов:   2
Разрядность:   16
Битрейт:   799 РєР±РёС‚/СЃ
Кодек:   FLAC
==============================================================
D. Alvarez, Eric Audet, Jason Park, Scip
Правила, инструкции, FAQ!!!
Торрент  Добавлен [26 июн 2020, 17:59] Скачать торрент Магнет ссылка
Скачать торрент
[ Размер 17.32 КБ / Просмотров 11 ]

Статус
Проверен 
 
Размер  418.41 МБ
Приватный: Нет (DHT включён)
.torrent скачан  0
 


     Отправить личное сообщение
   
Страница 1 из 1
Показать сообщения за:  Поле сортировки  
Начать новую тему Ответить на тему


Сейчас этот форум просматривают: нет зарегистрированных пользователей и гости: 0


Вы не можете начинать темы
Вы не можете отвечать на сообщения
Вы не можете редактировать свои сообщения
Вы не можете удалять свои сообщения
Вы не можете добавлять вложения

Перейти:  
cron