Начать новую тему Ответить на тему
Статистика раздачи
Размер: 776.72 МБ | Добавлен: 26 июн 2020, 20:17 | Скачали: 0
Сидеров: 0  [0 байт/сек]    Личеров: 0  [0 байт/сек]
Пред. тема | След. тема 

Автор
Сообщение

СообщениеДобавлено: 26 июн 2020, 20:17 

Ответить с цитатой 

Fektion Fekler - Into The Sun (2CD Limited Edition)

Жанр: EBM, Industrial, Electro
Страна-производитель диска: Poland
Год издания диска: 2004
Издатель (лейбл): Black Flames Records
Номер по каталогу: BFCD 022
Страна: USA
Аудио кодек: FLAC (*.flac)
Тип рипа: image+.cue
Битрейт аудио: lossless
Продолжительность: 00:49:17 / 00:42:08
Источник (релизер): Собственный рип
Наличие сканов в содержимом раздачи: да, PNG 600 dpi
01. Take It All
02. Heathen
03. Generations
04. Sunsky
05. Anarchy Of Seperation
06. Pig's Feet
07. Self Torture
08. Sinsa
09. Through The Days
10. Legends
Код:
 Exact Audio Copy V0.99 prebeta 5 from 4. May 2009
Отчёт EAC об извлечении, выполненном 18. апреля 2011, 22:22
Fektion Fekler / Into the Sun (CD 1)
Дисковод: PIONEER DVD-RW  DVR-212   Adapter: 3  ID: 1
Режим чтения                 : Достоверность
Использование точного потока : Да
Отключение кэша аудио        : Да
Использование указателей C2  : Нет
Коррекция смещения при чтении                     : 48
Способность читать области Lead-in и Lead-out     : Нет
Заполнение пропущенных сэмплов тишиной            : Да
Удаление блоков с тишиной в начале и конце        : Нет
При вычислениях CRC использовались нулевые сэмплы : Да
Интерфейс                                         : Встроенный Win32-интерфейс для Win NT/2000
Выходной формат          : Пользовательский кодировщик
Выбранный битрейт        : 1024 kBit/s
Качество                 : Высокий
Добавление ID3-тэга      : Нет
Утилита сжатия           : C:\Program Files (x86)\Exact Audio Copy\FLAC\FLAC.EXE
Дополнительные параметры : -8 -V %s
TOC извлечённого CD
     Трек |   Старт  | Длительность | Начальный сектор | Конечный сектор
    ---------------------------------------------------------------------
       1  |  0:00.00 |    6:35.57   |           0      |      29681
       2  |  6:35.57 |    3:33.03   |       29682      |      45659
       3  | 10:08.60 |    5:26.62   |       45660      |      70171
       4  | 15:35.47 |    3:58.16   |       70172      |      88037
       5  | 19:33.63 |    5:59.59   |       88038      |     115021
       6  | 25:33.47 |    2:54.08   |      115022      |     128079
       7  | 28:27.55 |    5:41.65   |      128080      |     153719
       8  | 34:09.45 |    5:22.33   |      153720      |     177902
       9  | 39:32.03 |    3:47.01   |      177903      |     194928
      10  | 43:19.04 |    5:58.36   |      194929      |     221814
Характеристики диапазона извлечения и сообщения об ошибках
Выбранный диапазон
     Имя файла D:\РАЗДАЧИ!!!!\Fektion Fekler - Into the Sun (2CD) - 2004\Disc 1\Fektion Fekler - Into the Sun (CD 1).wav
     Пиковый уровень 89.2 %
     Качество диапазона 100.0 %
     CRC теста 38BBDDCC
     CRC копии 38BBDDCC
     Копирование... OK
Ошибок не произошло
AccurateRip: сводка
Трек  1  точное извлечение (доверие 3)  [6520FB33]
Трек  2  точное извлечение (доверие 3)  [AA749337]
Трек  3  точное извлечение (доверие 3)  [1A5A1D73]
Трек  4  точное извлечение (доверие 3)  [858C26BA]
Трек  5  точное извлечение (доверие 3)  [32989686]
Трек  6  точное извлечение (доверие 3)  [F955896F]
Трек  7  точное извлечение (доверие 3)  [7F2629DA]
Трек  8  точное извлечение (доверие 3)  [BFC45AFC]
Трек  9  точное извлечение (доверие 3)  [3BEBBA73]
Трек 10  точное извлечение (доверие 3)  [1E1DA452]
Все треки извлечены точно
Конец отчёта
 
Код:
REM GENRE Industrial
REM DATE 2004
REM DISCID 7D0B8D0A
REM COMMENT "ExactAudioCopy v0.99pb5"
PERFORMER "Fektion Fekler"
TITLE "Into the Sun (CD 1)"
FILE "Fektion Fekler - Into the Sun (CD 1).flac" WAVE
  TRACK 01 AUDIO
    TITLE "Take it all"
    PERFORMER "Fektion Fekler"
    INDEX 01 00:00:00
  TRACK 02 AUDIO
    TITLE "Heathen"
    PERFORMER "Fektion Fekler"
    INDEX 01 06:35:57
  TRACK 03 AUDIO
    TITLE "Generations"
    PERFORMER "Fektion Fekler"
    INDEX 01 10:08:60
  TRACK 04 AUDIO
    TITLE "Sunsky"
    PERFORMER "Fektion Fekler"
    INDEX 01 15:35:47
  TRACK 05 AUDIO
    TITLE "Anarchy of Separation"
    PERFORMER "Fektion Fekler"
    INDEX 01 19:33:63
  TRACK 06 AUDIO
    TITLE "Pig's Feet"
    PERFORMER "Fektion Fekler"
    INDEX 01 25:33:47
  TRACK 07 AUDIO
    TITLE "Self Toture"
    PERFORMER "Fektion Fekler"
    INDEX 01 28:27:55
  TRACK 08 AUDIO
    TITLE "Sinsa"
    PERFORMER "Fektion Fekler"
    INDEX 01 34:09:45
  TRACK 09 AUDIO
    TITLE "Through the Days"
    PERFORMER "Fektion Fekler"
    INDEX 01 39:32:03
  TRACK 10 AUDIO
    TITLE "Legends"
    PERFORMER "Fektion Fekler"
    INDEX 01 43:19:04
   
Код:
AUDIOCHECKER v2.0 beta (build 457) - by Dester - opdester@freemail.hu
~~~~~~~~~~~~~~~~~~~~~~~~~~~~~~~~~~
-=== DO NOT EDIT THIS FILE! ===-
Path: ...\Disc 1
1 -=- Fektion Fekler - Into the Sun (CD 1).flac -=- MPEG (95%)
62247956
   
01. God I'm Sick
02. It's Over
03. Instincts
04. Bleed
05. Dead And Buried
06. Unidone
07. Visitor
08. Saved
09. Last Night
10. Liberate Tuteme
Код:
 Exact Audio Copy V0.99 prebeta 5 from 4. May 2009
Отчёт EAC об извлечении, выполненном 18. апреля 2011, 22:44
Fektion Fekler / Into the Sun (CD 2)
Дисковод: PIONEER DVD-RW  DVR-212   Adapter: 3  ID: 1
Режим чтения                 : Достоверность
Использование точного потока : Да
Отключение кэша аудио        : Да
Использование указателей C2  : Нет
Коррекция смещения при чтении                     : 48
Способность читать области Lead-in и Lead-out     : Нет
Заполнение пропущенных сэмплов тишиной            : Да
Удаление блоков с тишиной в начале и конце        : Нет
При вычислениях CRC использовались нулевые сэмплы : Да
Интерфейс                                         : Встроенный Win32-интерфейс для Win NT/2000
Выходной формат          : Пользовательский кодировщик
Выбранный битрейт        : 1024 kBit/s
Качество                 : Высокий
Добавление ID3-тэга      : Нет
Утилита сжатия           : C:\Program Files (x86)\Exact Audio Copy\FLAC\FLAC.EXE
Дополнительные параметры : -8 -V %s
TOC извлечённого CD
     Трек |   Старт  | Длительность | Начальный сектор | Конечный сектор
    ---------------------------------------------------------------------
       1  |  0:00.00 |    3:53.23   |           0      |      17497
       2  |  3:53.23 |    4:11.11   |       17498      |      36333
       3  |  8:04.34 |    4:08.23   |       36334      |      54956
       4  | 12:12.57 |    4:15.25   |       54957      |      74106
       5  | 16:28.07 |    4:51.34   |       74107      |      95965
       6  | 21:19.41 |    4:06.61   |       95966      |     114476
       7  | 25:26.27 |    6:25.74   |      114477      |     143425
       8  | 31:52.26 |    1:35.54   |      143426      |     150604
       9  | 33:28.05 |    2:54.12   |      150605      |     163666
      10  | 36:22.17 |    5:46.25   |      163667      |     189641
Характеристики диапазона извлечения и сообщения об ошибках
Выбранный диапазон
     Имя файла D:\РАЗДАЧИ!!!!\Fektion Fekler - Into the Sun (2CD) - 2004\Disc 2\Fektion Fekler - Into the Sun (CD 2).wav
     Пиковый уровень 100.0 %
     Качество диапазона 100.0 %
     CRC теста D883C11B
     CRC копии D883C11B
     Копирование... OK
Ошибок не произошло
AccurateRip: сводка
Трек  1  точное извлечение (доверие 3)  [4768BA59]
Трек  2  точное извлечение (доверие 3)  [5003E014]
Трек  3  точное извлечение (доверие 3)  [CAB04935]
Трек  4  точное извлечение (доверие 3)  [A8D3535A]
Трек  5  точное извлечение (доверие 3)  [9C3E200F]
Трек  6  точное извлечение (доверие 3)  [B2DCFE44]
Трек  7  точное извлечение (доверие 3)  [DF2DDA1F]
Трек  8  точное извлечение (доверие 3)  [2E55B632]
Трек  9  точное извлечение (доверие 2)  [75E834AD]
Трек 10  точное извлечение (доверие 3)  [2E2A0EC1]
Все треки извлечены точно
Конец отчёта
   
Код:
 REM GENRE Industrial
REM DATE 2004
REM DISCID 7B09E00A
REM COMMENT "ExactAudioCopy v0.99pb5"
PERFORMER "Fektion Fekler"
TITLE "Into the Sun (CD 2)"
FILE "Fektion Fekler - Into the Sun (CD 2).flac" WAVE
  TRACK 01 AUDIO
    TITLE "God I'm Sick"
    PERFORMER "Fektion Fekler"
    INDEX 01 00:00:00
  TRACK 02 AUDIO
    TITLE "It's Over"
    PERFORMER "Fektion Fekler"
    INDEX 01 03:53:23
  TRACK 03 AUDIO
    TITLE "Instincts"
    PERFORMER "Fektion Fekler"
    INDEX 01 08:04:34
  TRACK 04 AUDIO
    TITLE "Bleed"
    PERFORMER "Fektion Fekler"
    INDEX 01 12:12:57
  TRACK 05 AUDIO
    TITLE "Dead And Buried"
    PERFORMER "Fektion Fekler"
    INDEX 01 16:28:07
  TRACK 06 AUDIO
    TITLE "Unidone"
    PERFORMER "Fektion Fekler"
    INDEX 01 21:19:41
  TRACK 07 AUDIO
    TITLE "Visitor"
    PERFORMER "Fektion Fekler"
    INDEX 01 25:26:27
  TRACK 08 AUDIO
    TITLE "Saved"
    PERFORMER "Fektion Fekler"
    INDEX 01 31:52:26
  TRACK 09 AUDIO
    TITLE "Last Night"
    PERFORMER "Fektion Fekler"
    INDEX 01 33:28:05
  TRACK 10 AUDIO
    TITLE "Liberate Tutemet"
    PERFORMER "Fektion Fekler"
    INDEX 01 36:22:17
 
Код:
 AUDIOCHECKER v2.0 beta (build 457) - by Dester - opdester@freemail.hu
~~~~~~~~~~~~~~~~~~~~~~~~~~~~~~~~~~
-=== DO NOT EDIT THIS FILE! ===-
Path: ...\Disc 2
1 -=- Fektion Fekler - Into the Sun (CD 2).flac -=- MPEG (95%)
7087124
 
Выкладывая этот довольно таки редкий релиз, я тщательно проверил его на качество. Нет, это не апконверт, это такой выпуск. И другого в более приличном качестве не будет. Само качество звучания, нормальное, не смотря на спектр. Надо слушать. Выкладываю спектры, полностью обоих образов.
Думаю, любители этой группы, достойно оценят, и сам альбом и качество.
Disc 1 Disc 2
Limited to 1000 copies.
Правила, инструкции, FAQ!!!
Торрент  Добавлен [26 июн 2020, 20:17] Скачать торрент Магнет ссылка
Скачать торрент
[ Размер 16.92 КБ / Просмотров 8 ]

Статус
Проверен 
 
Размер  776.72 МБ
Приватный: Нет (DHT включён)
.torrent скачан  0
 


     Отправить личное сообщение
   
Страница 1 из 1
Показать сообщения за:  Поле сортировки  
Начать новую тему Ответить на тему


Сейчас этот форум просматривают: нет зарегистрированных пользователей и гости: 0


Вы не можете начинать темы
Вы не можете отвечать на сообщения
Вы не можете редактировать свои сообщения
Вы не можете удалять свои сообщения
Вы не можете добавлять вложения

Перейти:  
cron