Начать новую тему Ответить на тему
Статистика раздачи
Размер: 2.26 ГБ | Добавлен: 26 июн 2020, 17:07 | Скачали: 0
Сидеров: 0  [0 байт/сек]    Личеров: 0  [0 байт/сек]
Пред. тема | След. тема 

Автор
Сообщение

СообщениеДобавлено: 26 июн 2020, 17:07 

Ответить с цитатой 

Various Artists - Endzeit Bunkertracks [Act III]
Жанр: EBM, Industrial, Electro
Страна-производитель диска: Belgium
Год издания диска: 2007
Издатель (лейбл): Alfa Matrix
Номер по каталогу: AM-1106FCD
Аудио кодек: FLAC (*.flac)
Тип рипа: tracks+.cue
Битрейт аудио: lossless
Продолжительность: 05:14:36
Источник (релизер): what.cd(absinthine)
Наличие сканов в содержимом раздачи: нет
Треклист:
CD 1 - Damage Session:
1. Nachtmahr - Boom Boom Boom (3:13)
2. Noisuf-X - Hit Me Hard (As Hard As You Can Mix) (4:23)
3. Krzon - Dead Or Alive (5:18)
4. Kombat Unit - We Are Machines (Rumble Remix By Soman) (4:32)
5. Leaether Strip - Battleground 07 (Rumsfeld Mix) (5:09)
6. Wynardtage - Praise The Fallen (Acylum Mix) (5:45)
7. Uberbyte - Total War (5:22)
8. Cylab - Dented Halo (Panel Beaten Remix By Skinjob) (5:00)
9. Acretongue - Estranged (4:53)
10. Helalyn Flowers - E-Race Generation (Angelspit Mix) (4:25)
11. The Judas Coven - Burn Your Soul (5:02)
12. Modulate - Skullfuck (4:37)
13. Caustic - MMM Papscraper I Love You (Cervello Elettronico Mix) (6:10)
14. Neikka Rpm - Umbrae Sub Noctem (Endzeit Mix) (3:29)
15. Angels On Acid - Misery Loves Company (5:57)
16. Unter Null - Journey To Descent (V1) (5:37)
CD 2 - Torture Session:
1. Faderhead - Dirtygirrrls / Dirtybois (Modulate Mix) (4:53)
2. Soman - Mask (5:33)
3. Sam - Arm Of Justice (Rough Mix) (5:58)
4. Implant - There Is A Riot Going On (5:53)
5. Grendel - Hate This (X-Fusion Mix) (4:00)
6. Suicide Commando - Hate Me (Leaether Strip Mix) (4:37)
7. Fgfc820 - Anthem (Steinkind Mix) (6:13)
8. Dunkelwerk - Ungethuem (Edit) (3:36)
9. Trimetrick - Bitch From Hell (DJ1) (5:13)
10. Skoyz - Distress Signal (C-Drone Defect Mix) (5:51)
11. Painbastard - Nyctophobia (Straftanz Mix) (4:26)
12. Essence Of Mind - Different (4:57)
13. FabrikC - Exorcism (3:57)
14. Detune X - Pure Evil (Hardbeat Mix) (3:22)
15. C/A/T - Enhancer (Cervello Elettronico Mix) (4:38)
16. Banister - Taste Of Flesh (5:03)
CD 3 - Evil Session:
1. Radium226 - Nuclear Violation (4:36)
2. Prototype - I Hate You (5:31)
3. Acylum - Rape (Exclusive Edit) (5:12)
4. Endif Feat. Replogen - Last Tribe (4:11)
5. Complex Mind - Infiltrat (4:13)
6. Sebastian Komor - Das Oontz (5:04)
7. Schnarph! - Virus (3:37)
8. Experiment Haywire - Game Called Life (4:40)
9. Splatter Squall - Shadows (4:13)
10. [:SITD:] - Stammheim (Edit) (5:36)
11. Ayria - The Gun Song (Essence Of Mind Mix) (4:39)
12. X-Fusion - Rotten To The Core (Soliary Experiments Remix) (5:21)
13. 32crash - Lone Ranger (C-Drone Defect Mix) (5:27)
14. Monolith - All Over (Ah Cama-Sotz Mix) (3:41)
15. Cervello Elettronico - Plastic Face (5:27)
16. X-RX - No More Room In Hell (3:36)
17. Virgins O.R. Pigeons - Existe (Violated Virgin Remix) (3:40)
CD 4 - Death Session:
1. Skinjob - Man (Mothers Against Noise) (5:14)
2. Schallfaktor - Menschen (4:29)
3. Stahlfrequenz - Nothing But A Mashine (4:39)
4. Alter der Ruine - Coppin' It Sweet (Noisuf-X Mix) (4:18)
5. Propulsion - Extreme (3:58)
6. Diskonnekted - Adrenaline (Endzeit Edit) (3:50)
7. Dawn Of Ashes - Still Born Defect (Nemesis Mix) (4:24)
8. Vision Anomaly - Anxiety Neuroses (feat. Stahlnebel) (5:07)
9. De Tot Cor - Strawberry Panic (5:15)
10. Terorfakt - Skullfucker (Synnack Mix) (4:46)
11. Individual Totem - WWW (6:01)
12. Inure - The Offering (4:24)
13. Chaoskult - Numb (4:46)
14. C-Drone Defect - Morituri Te Salutant (4:51)
15. Noisex - Das ist Elektro (4:11)
16. Psy'aviah - Mine (Endzeit Mix) (4:07)
17. Isis Signum - Destroy the Wall (feat. Sara Noxx) (Supreme Court Remix) (3:56)
Discogs.com
Код:
[pre]Exact Audio Copy V0.99 prebeta 5 from 4. May 2009
EAC extraction logfile from 15. May 2009, 1:10
Various / Endzeit Bunkertracks [Act III] disc 1
Used drive : JLMS DVD-ROM LTD-166S Adapter: 0 ID: 1
Read mode : Secure
Utilize accurate stream : Yes
Defeat audio cache : Yes
Make use of C2 pointers : No
Read offset correction : 12
Overread into Lead-In and Lead-Out : No
Fill up missing offset samples with silence : Yes
Delete leading and trailing silent blocks : No
Null samples used in CRC calculations : Yes
Used interface : Native Win32 interface for Win NT & 2000
Gap handling : Appended to previous track
Used output format : User Defined Encoder
Selected bitrate : 192 kBit/s
Quality : High
Add ID3 tag : No
Command line compressor : C:\Program Files\Exact Audio Copy\Flac\flac.exe
Additional command line options : -V -8 -T "artist=%a" -T "title=%t" -T "album=%g" -T "date=%y" -T "tracknumber=%n" -T "genre=%m" %s
TOC of the extracted CD
Track | Start | Length | Start sector | End sector
---------------------------------------------------------
1 | 0:00.00 | 3:13.36 | 0 | 14510
2 | 3:13.36 | 4:23.26 | 14511 | 34261
3 | 7:36.62 | 5:18.61 | 34262 | 58172
4 | 12:55.48 | 4:32.34 | 58173 | 78606
5 | 17:28.07 | 5:09.64 | 78607 | 101845
6 | 22:37.71 | 5:45.22 | 101846 | 127742
7 | 28:23.18 | 5:22.54 | 127743 | 151946
8 | 33:45.72 | 5:00.26 | 151947 | 174472
9 | 38:46.23 | 4:53.56 | 174473 | 196503
10 | 43:40.04 | 4:25.21 | 196504 | 216399
11 | 48:05.25 | 5:02.57 | 216400 | 239106
12 | 53:08.07 | 4:37.46 | 239107 | 259927
13 | 57:45.53 | 6:10.18 | 259928 | 287695
14 | 63:55.71 | 3:29.01 | 287696 | 303371
15 | 67:24.72 | 5:57.23 | 303372 | 330169
16 | 73:22.20 | 5:37.08 | 330170 | 355452
Track 1
Filename G:\Mine\my documents\My Music\EAC rips\flac\Various - 2007 - Endzeit Bunkertracks [Act III] disc 1\Various - 2007 - Endzeit Bunkertracks [Act III] disc 1 - 01 - Boom Boom Boom.wav
Pre-gap length 0:00:02.00
Peak level 100.0 %
Track quality 100.0 %
Test CRC F28E74EB
Copy CRC F28E74EB
Accurately ripped (confidence 3) [91250E0B]
Copy OK
Track 2
Filename G:\Mine\my documents\My Music\EAC rips\flac\Various - 2007 - Endzeit Bunkertracks [Act III] disc 1\Various - 2007 - Endzeit Bunkertracks [Act III] disc 1 - 02 - Hit Me Hard (As Hard As You Can Mix).wav
Pre-gap length 0:00:01.00
Peak level 93.8 %
Track quality 99.9 %
Test CRC 26BA612D
Copy CRC 26BA612D
Accurately ripped (confidence 3) [218227DD]
Copy OK
Track 3
Filename G:\Mine\my documents\My Music\EAC rips\flac\Various - 2007 - Endzeit Bunkertracks [Act III] disc 1\Various - 2007 - Endzeit Bunkertracks [Act III] disc 1 - 03 - Dead Or Alive.wav
Pre-gap length 0:00:01.00
Peak level 99.7 %
Track quality 100.0 %
Test CRC 2D775870
Copy CRC 2D775870
Accurately ripped (confidence 3) [3E072CC3]
Copy OK
Track 4
Filename G:\Mine\my documents\My Music\EAC rips\flac\Various - 2007 - Endzeit Bunkertracks [Act III] disc 1\Various - 2007 - Endzeit Bunkertracks [Act III] disc 1 - 04 - We Are Machines (Rumble Remix By Soman).wav
Pre-gap length 0:00:01.00
Peak level 99.7 %
Track quality 100.0 %
Test CRC D694FCD5
Copy CRC D694FCD5
Accurately ripped (confidence 3) [4034FDAD]
Copy OK
Track 5
Filename G:\Mine\my documents\My Music\EAC rips\flac\Various - 2007 - Endzeit Bunkertracks [Act III] disc 1\Various - 2007 - Endzeit Bunkertracks [Act III] disc 1 - 05 - Battleground 07 (Rumsfeld Mix).wav
Pre-gap length 0:00:01.00
Peak level 99.7 %
Track quality 100.0 %
Test CRC F56300F4
Copy CRC F56300F4
Accurately ripped (confidence 3) [78972020]
Copy OK
Track 6
Filename G:\Mine\my documents\My Music\EAC rips\flac\Various - 2007 - Endzeit Bunkertracks [Act III] disc 1\Various - 2007 - Endzeit Bunkertracks [Act III] disc 1 - 06 - Praise The Fallen (Acylum Mix).wav
Pre-gap length 0:00:01.00
Peak level 99.7 %
Track quality 100.0 %
Test CRC 4F717A1F
Copy CRC 4F717A1F
Accurately ripped (confidence 3) [2E16C038]
Copy OK
Track 7
Filename G:\Mine\my documents\My Music\EAC rips\flac\Various - 2007 - Endzeit Bunkertracks [Act III] disc 1\Various - 2007 - Endzeit Bunkertracks [Act III] disc 1 - 07 - Total War.wav
Pre-gap length 0:00:01.00
Peak level 99.7 %
Track quality 100.0 %
Test CRC 4345C376
Copy CRC 4345C376
Accurately ripped (confidence 3) [60B7FBF6]
Copy OK
Track 8
Filename G:\Mine\my documents\My Music\EAC rips\flac\Various - 2007 - Endzeit Bunkertracks [Act III] disc 1\Various - 2007 - Endzeit Bunkertracks [Act III] disc 1 - 08 - Dented Halo (Panel Beaten Remix By Skinjob).wav
Pre-gap length 0:00:01.00
Peak level 99.7 %
Track quality 100.0 %
Test CRC 6F4F9E25
Copy CRC 6F4F9E25
Accurately ripped (confidence 3) [D7DF590D]
Copy OK
Track 9
Filename G:\Mine\my documents\My Music\EAC rips\flac\Various - 2007 - Endzeit Bunkertracks [Act III] disc 1\Various - 2007 - Endzeit Bunkertracks [Act III] disc 1 - 09 - Estranged.wav
Pre-gap length 0:00:01.00
Peak level 99.7 %
Track quality 100.0 %
Test CRC 55C9D775
Copy CRC 55C9D775
Accurately ripped (confidence 3) [57B5FEA0]
Copy OK
Track 10
Filename G:\Mine\my documents\My Music\EAC rips\flac\Various - 2007 - Endzeit Bunkertracks [Act III] disc 1\Various - 2007 - Endzeit Bunkertracks [Act III] disc 1 - 10 - E-Race Generation (Angelspit Mix).wav
Pre-gap length 0:00:01.00
Peak level 99.7 %
Track quality 100.0 %
Test CRC 9DE40E70
Copy CRC 9DE40E70
Accurately ripped (confidence 3) [5DC09F38]
Copy OK
Track 11
Filename G:\Mine\my documents\My Music\EAC rips\flac\Various - 2007 - Endzeit Bunkertracks [Act III] disc 1\Various - 2007 - Endzeit Bunkertracks [Act III] disc 1 - 11 - Burn Your Soul.wav
Pre-gap length 0:00:01.00
Peak level 99.7 %
Track quality 99.7 %
Test CRC BDB175DD
Copy CRC BDB175DD
Accurately ripped (confidence 3) [ADDDDA5F]
Copy OK
Track 12
Filename G:\Mine\my documents\My Music\EAC rips\flac\Various - 2007 - Endzeit Bunkertracks [Act III] disc 1\Various - 2007 - Endzeit Bunkertracks [Act III] disc 1 - 12 - Skullfuck.wav
Pre-gap length 0:00:01.00
Peak level 99.7 %
Track quality 99.4 %
Test CRC 3B8C32D7
Copy CRC 3B8C32D7
Accurately ripped (confidence 3) [F1961A29]
Copy OK
Track 13
Filename G:\Mine\my documents\My Music\EAC rips\flac\Various - 2007 - Endzeit Bunkertracks [Act III] disc 1\Various - 2007 - Endzeit Bunkertracks [Act III] disc 1 - 13 - MMM Papscraper I Love You (Cervello Elettronico Mix).wav
Pre-gap length 0:00:01.00
Peak level 99.7 %
Track quality 99.5 %
Test CRC 819D171B
Copy CRC 819D171B
Accurately ripped (confidence 3) [8F8824D1]
Copy OK
Track 14
Filename G:\Mine\my documents\My Music\EAC rips\flac\Various - 2007 - Endzeit Bunkertracks [Act III] disc 1\Various - 2007 - Endzeit Bunkertracks [Act III] disc 1 - 14 - Umbrae Sub Noctem (Endzeit Mix).wav
Pre-gap length 0:00:01.00
Peak level 99.7 %
Track quality 99.6 %
Test CRC C5C25AB8
Copy CRC C5C25AB8
Accurately ripped (confidence 3) [0303A742]
Copy OK
Track 15
Filename G:\Mine\my documents\My Music\EAC rips\flac\Various - 2007 - Endzeit Bunkertracks [Act III] disc 1\Various - 2007 - Endzeit Bunkertracks [Act III] disc 1 - 15 - Misery Loves Company.wav
Pre-gap length 0:00:01.00
Peak level 99.7 %
Track quality 99.9 %
Test CRC 71682C30
Copy CRC 71682C30
Accurately ripped (confidence 3) [A8F01CB3]
Copy OK
Track 16
Filename G:\Mine\my documents\My Music\EAC rips\flac\Various - 2007 - Endzeit Bunkertracks [Act III] disc 1\Various - 2007 - Endzeit Bunkertracks [Act III] disc 1 - 16 - Journey To Descent (V1).wav
Pre-gap length 0:00:01.00
Peak level 99.7 %
Track quality 100.0 %
Test CRC 6ED23F83
Copy CRC 6ED23F83
Accurately ripped (confidence 3) [FBB29C60]
Copy OK
All tracks accurately ripped
No errors occurred
End of status report
Код:
Exact Audio Copy V0.99 prebeta 5 from 4. May 2009
EAC extraction logfile from 15. May 2009, 1:53
Various / Endzeit Bunkertracks [Act III] disc 2
Used drive  :   JLMS  DVD-ROM LTD-166S   Adapter: 0  ID: 1
Read mode               : Secure
Utilize accurate stream : Yes
Defeat audio cache      : Yes
Make use of C2 pointers : No
Read offset correction                      : 12
Overread into Lead-In and Lead-Out          : No
Fill up missing offset samples with silence : Yes
Delete leading and trailing silent blocks   : No
Null samples used in CRC calculations       : Yes
Used interface                              : Native Win32 interface for Win NT & 2000
Gap handling                                : Appended to previous track
Used output format              : User Defined Encoder
Selected bitrate                : 192 kBit/s
Quality                         : High
Add ID3 tag                     : No
Command line compressor         : C:\Program Files\Exact Audio Copy\Flac\flac.exe
Additional command line options : -V -8 -T "artist=%a" -T "title=%t" -T "album=%g" -T "date=%y" -T "tracknumber=%n" -T "genre=%m" %s
TOC of the extracted CD
     Track |   Start  |  Length  | Start sector | End sector
    ---------------------------------------------------------
        1  |  0:00.00 |  4:53.08 |         0    |    21982
        2  |  4:53.08 |  5:33.24 |     21983    |    46981
        3  | 10:26.32 |  5:58.27 |     46982    |    73858
        4  | 16:24.59 |  5:53.42 |     73859    |   100375
        5  | 22:18.26 |  4:00.26 |    100376    |   118401
        6  | 26:18.52 |  4:37.12 |    118402    |   139188
        7  | 30:55.64 |  6:13.57 |    139189    |   167220
        8  | 37:09.46 |  3:36.65 |    167221    |   183485
        9  | 40:46.36 |  5:13.54 |    183486    |   207014
       10  | 46:00.15 |  5:51.58 |    207015    |   233397
       11  | 51:51.73 |  4:26.47 |    233398    |   253394
       12  | 56:18.45 |  4:57.66 |    253395    |   275735
       13  | 61:16.36 |  3:57.45 |    275736    |   293555
       14  | 65:14.06 |  3:22.15 |    293556    |   308720
       15  | 68:36.21 |  4:38.11 |    308721    |   329581
       16  | 73:14.32 |  5:03.70 |    329582    |   352376
Track  1
     Filename G:\Mine\my documents\My Music\EAC rips\flac\Various - 2007 - Endzeit Bunkertracks [Act III] disc 2\Various - 2007 - Endzeit Bunkertracks [Act III] disc 2 - 01 - Dirtygirrrls , Dirtybois (Modulate Mix).wav
     Pre-gap length  0:00:02.00
     Peak level 100.0 %
     Track quality 100.0 %
     Test CRC 7C3983D2
     Copy CRC 7C3983D2
     Accurately ripped (confidence 3)  [B63AE68C]
     Copy OK
Track  2
     Filename G:\Mine\my documents\My Music\EAC rips\flac\Various - 2007 - Endzeit Bunkertracks [Act III] disc 2\Various - 2007 - Endzeit Bunkertracks [Act III] disc 2 - 02 - Mask.wav
     Pre-gap length  0:00:01.00
     Peak level 97.7 %
     Track quality 100.0 %
     Test CRC E04177BD
     Copy CRC E04177BD
     Accurately ripped (confidence 3)  [EC2B59D3]
     Copy OK
Track  3
     Filename G:\Mine\my documents\My Music\EAC rips\flac\Various - 2007 - Endzeit Bunkertracks [Act III] disc 2\Various - 2007 - Endzeit Bunkertracks [Act III] disc 2 - 03 - Arm Of Justice (Rough Mix).wav
     Pre-gap length  0:00:01.00
     Peak level 100.0 %
     Track quality 100.0 %
     Test CRC 5CA56752
     Copy CRC 5CA56752
     Accurately ripped (confidence 3)  [18CDF626]
     Copy OK
Track  4
     Filename G:\Mine\my documents\My Music\EAC rips\flac\Various - 2007 - Endzeit Bunkertracks [Act III] disc 2\Various - 2007 - Endzeit Bunkertracks [Act III] disc 2 - 04 - There Is A Riot Going On.wav
     Pre-gap length  0:00:01.00
     Peak level 100.0 %
     Track quality 100.0 %
     Test CRC DA0B7ED6
     Copy CRC DA0B7ED6
     Accurately ripped (confidence 3)  [A4AB8D60]
     Copy OK
Track  5
     Filename G:\Mine\my documents\My Music\EAC rips\flac\Various - 2007 - Endzeit Bunkertracks [Act III] disc 2\Various - 2007 - Endzeit Bunkertracks [Act III] disc 2 - 05 - Hate This (X-Fusion Mix).wav
     Pre-gap length  0:00:01.00
     Peak level 77.5 %
     Track quality 100.0 %
     Test CRC 2758BA40
     Copy CRC 2758BA40
     Accurately ripped (confidence 3)  [E6A39972]
     Copy OK
Track  6
     Filename G:\Mine\my documents\My Music\EAC rips\flac\Various - 2007 - Endzeit Bunkertracks [Act III] disc 2\Various - 2007 - Endzeit Bunkertracks [Act III] disc 2 - 06 - Hate Me (Leжther Strip Mix).wav
     Pre-gap length  0:00:01.00
     Peak level 100.0 %
     Track quality 100.0 %
     Test CRC A914605A
     Copy CRC A914605A
     Accurately ripped (confidence 3)  [707FA2DB]
     Copy OK
Track  7
     Filename G:\Mine\my documents\My Music\EAC rips\flac\Various - 2007 - Endzeit Bunkertracks [Act III] disc 2\Various - 2007 - Endzeit Bunkertracks [Act III] disc 2 - 07 - Anthem (Steinkind Mix).wav
     Pre-gap length  0:00:01.00
     Peak level 99.7 %
     Track quality 100.0 %
     Test CRC AB46A142
     Copy CRC AB46A142
     Accurately ripped (confidence 3)  [DB736372]
     Copy OK
Track  8
     Filename G:\Mine\my documents\My Music\EAC rips\flac\Various - 2007 - Endzeit Bunkertracks [Act III] disc 2\Various - 2007 - Endzeit Bunkertracks [Act III] disc 2 - 08 - Ungethuem (Edit).wav
     Pre-gap length  0:00:01.00
     Peak level 99.7 %
     Track quality 100.0 %
     Test CRC C52B3B75
     Copy CRC C52B3B75
     Accurately ripped (confidence 3)  [C58A3FA4]
     Copy OK
Track  9
     Filename G:\Mine\my documents\My Music\EAC rips\flac\Various - 2007 - Endzeit Bunkertracks [Act III] disc 2\Various - 2007 - Endzeit Bunkertracks [Act III] disc 2 - 09 - Bitch From Hell (DJ1).wav
     Pre-gap length  0:00:01.00
     Peak level 91.7 %
     Track quality 100.0 %
     Test CRC C2141819
     Copy CRC C2141819
     Accurately ripped (confidence 3)  [167CFE7D]
     Copy OK
Track 10
     Filename G:\Mine\my documents\My Music\EAC rips\flac\Various - 2007 - Endzeit Bunkertracks [Act III] disc 2\Various - 2007 - Endzeit Bunkertracks [Act III] disc 2 - 10 - Distress Signal (C-Drone Defect Mix).wav
     Pre-gap length  0:00:01.00
     Peak level 100.0 %
     Track quality 100.0 %
     Test CRC 28EBCEEB
     Copy CRC 28EBCEEB
     Accurately ripped (confidence 3)  [6055B020]
     Copy OK
Track 11
     Filename G:\Mine\my documents\My Music\EAC rips\flac\Various - 2007 - Endzeit Bunkertracks [Act III] disc 2\Various - 2007 - Endzeit Bunkertracks [Act III] disc 2 - 11 - Nyctophobia (Straftanz Mix).wav
     Pre-gap length  0:00:01.00
     Peak level 100.0 %
     Track quality 99.9 %
     Test CRC DF9134A9
     Copy CRC DF9134A9
     Accurately ripped (confidence 3)  [37BFD8FE]
     Copy OK
Track 12
     Filename G:\Mine\my documents\My Music\EAC rips\flac\Various - 2007 - Endzeit Bunkertracks [Act III] disc 2\Various - 2007 - Endzeit Bunkertracks [Act III] disc 2 - 12 - Different.wav
     Pre-gap length  0:00:01.00
     Peak level 100.0 %
     Track quality 99.9 %
     Test CRC 1BAA05A9
     Copy CRC 1BAA05A9
     Accurately ripped (confidence 3)  [EA12AC88]
     Copy OK
Track 13
     Filename G:\Mine\my documents\My Music\EAC rips\flac\Various - 2007 - Endzeit Bunkertracks [Act III] disc 2\Various - 2007 - Endzeit Bunkertracks [Act III] disc 2 - 13 - Exorcism.wav
     Pre-gap length  0:00:01.00
     Peak level 89.1 %
     Track quality 100.0 %
     Test CRC 8ADF412C
     Copy CRC 8ADF412C
     Accurately ripped (confidence 3)  [80ABD39E]
     Copy OK
Track 14
     Filename G:\Mine\my documents\My Music\EAC rips\flac\Various - 2007 - Endzeit Bunkertracks [Act III] disc 2\Various - 2007 - Endzeit Bunkertracks [Act III] disc 2 - 14 - Pure Evil (Hardbeat Mix).wav
     Pre-gap length  0:00:00.74
     Peak level 100.0 %
     Track quality 100.0 %
     Test CRC 8623B72E
     Copy CRC 8623B72E
     Accurately ripped (confidence 3)  [E6836D01]
     Copy OK
Track 15
     Filename G:\Mine\my documents\My Music\EAC rips\flac\Various - 2007 - Endzeit Bunkertracks [Act III] disc 2\Various - 2007 - Endzeit Bunkertracks [Act III] disc 2 - 15 - Enhancer (Cervello Elettronico Mix).wav
     Pre-gap length  0:00:01.00
     Peak level 100.0 %
     Track quality 100.0 %
     Test CRC 023B001B
     Copy CRC 023B001B
     Accurately ripped (confidence 3)  [5AFAFD57]
     Copy OK
Track 16
     Filename G:\Mine\my documents\My Music\EAC rips\flac\Various - 2007 - Endzeit Bunkertracks [Act III] disc 2\Various - 2007 - Endzeit Bunkertracks [Act III] disc 2 - 16 - Taste Of Flesh.wav
     Pre-gap length  0:00:01.00
     Peak level 100.0 %
     Track quality 100.0 %
     Test CRC 00E10C2B
     Copy CRC 00E10C2B
     Accurately ripped (confidence 3)  [6AFF353D]
     Copy OK
All tracks accurately ripped
No errors occurred
End of status report
Код:
Exact Audio Copy V0.99 prebeta 5 from 4. May 2009
EAC extraction logfile from 15. May 2009, 2:22
Various / Endzeit Bunkertracks [Act III] disc 3
Used drive  :   JLMS  DVD-ROM LTD-166S   Adapter: 0  ID: 1
Read mode               : Secure
Utilize accurate stream : Yes
Defeat audio cache      : Yes
Make use of C2 pointers : No
Read offset correction                      : 12
Overread into Lead-In and Lead-Out          : No
Fill up missing offset samples with silence : Yes
Delete leading and trailing silent blocks   : No
Null samples used in CRC calculations       : Yes
Used interface                              : Native Win32 interface for Win NT & 2000
Gap handling                                : Appended to previous track
Used output format              : User Defined Encoder
Selected bitrate                : 192 kBit/s
Quality                         : High
Add ID3 tag                     : No
Command line compressor         : C:\Program Files\Exact Audio Copy\Flac\flac.exe
Additional command line options : -V -8 -T "artist=%a" -T "title=%t" -T "album=%g" -T "date=%y" -T "tracknumber=%n" -T "genre=%m" %s
TOC of the extracted CD
     Track |   Start  |  Length  | Start sector | End sector
    ---------------------------------------------------------
        1  |  0:00.00 |  4:36.04 |         0    |    20703
        2  |  4:36.04 |  5:31.36 |     20704    |    45564
        3  | 10:07.40 |  5:12.66 |     45565    |    69030
        4  | 15:20.31 |  4:11.68 |     69031    |    87923
        5  | 19:32.24 |  4:13.37 |     87924    |   106935
        6  | 23:45.61 |  5:04.64 |    106936    |   129799
        7  | 28:50.50 |  3:37.16 |    129800    |   146090
        8  | 32:27.66 |  4:40.70 |    146091    |   167160
        9  | 37:08.61 |  4:13.30 |    167161    |   186165
       10  | 41:22.16 |  5:36.29 |    186166    |   211394
       11  | 46:58.45 |  4:39.47 |    211395    |   232366
       12  | 51:38.17 |  5:21.01 |    232367    |   256442
       13  | 56:59.18 |  5:27.66 |    256443    |   281033
       14  | 62:27.09 |  3:41.59 |    281034    |   297667
       15  | 66:08.68 |  5:27.21 |    297668    |   322213
       16  | 71:36.14 |  3:36.72 |    322214    |   338485
       17  | 75:13.11 |  3:40.50 |    338486    |   355035
Track  1
     Filename G:\Mine\my documents\My Music\EAC rips\flac\Various - 2007 - Endzeit Bunkertracks [Act III] disc 3\Various - 2007 - Endzeit Bunkertracks [Act III] disc 3 - 01 - Nuclear Violation.wav
     Pre-gap length  0:00:02.00
     Peak level 100.0 %
     Track quality 100.0 %
     Test CRC D1536683
     Copy CRC D1536683
     Accurately ripped (confidence 3)  [911D0563]
     Copy OK
Track  2
     Filename G:\Mine\my documents\My Music\EAC rips\flac\Various - 2007 - Endzeit Bunkertracks [Act III] disc 3\Various - 2007 - Endzeit Bunkertracks [Act III] disc 3 - 02 - I Hate You.wav
     Pre-gap length  0:00:00.74
     Peak level 100.0 %
     Track quality 100.0 %
     Test CRC 5DAAF350
     Copy CRC 5DAAF350
     Accurately ripped (confidence 3)  [6A94D6AC]
     Copy OK
Track  3
     Filename G:\Mine\my documents\My Music\EAC rips\flac\Various - 2007 - Endzeit Bunkertracks [Act III] disc 3\Various - 2007 - Endzeit Bunkertracks [Act III] disc 3 - 03 - Rape (Exclusive Edit).wav
     Pre-gap length  0:00:01.00
     Peak level 100.0 %
     Track quality 100.0 %
     Test CRC 0499568A
     Copy CRC 0499568A
     Accurately ripped (confidence 3)  [FC761BEC]
     Copy OK
Track  4
     Filename G:\Mine\my documents\My Music\EAC rips\flac\Various - 2007 - Endzeit Bunkertracks [Act III] disc 3\Various - 2007 - Endzeit Bunkertracks [Act III] disc 3 - 04 - Last Tribe.wav
     Pre-gap length  0:00:00.74
     Peak level 100.0 %
     Track quality 100.0 %
     Test CRC FFB91063
     Copy CRC FFB91063
     Accurately ripped (confidence 3)  [A5ED2E4A]
     Copy OK
Track  5
     Filename G:\Mine\my documents\My Music\EAC rips\flac\Various - 2007 - Endzeit Bunkertracks [Act III] disc 3\Various - 2007 - Endzeit Bunkertracks [Act III] disc 3 - 05 - Infiltrat.wav
     Pre-gap length  0:00:00.74
     Peak level 100.0 %
     Track quality 100.0 %
     Test CRC 583F5C1F
     Copy CRC 583F5C1F
     Accurately ripped (confidence 3)  [FF4D5350]
     Copy OK
Track  6
     Filename G:\Mine\my documents\My Music\EAC rips\flac\Various - 2007 - Endzeit Bunkertracks [Act III] disc 3\Various - 2007 - Endzeit Bunkertracks [Act III] disc 3 - 06 - Das Oontz.wav
     Pre-gap length  0:00:01.00
     Peak level 100.0 %
     Track quality 99.9 %
     Test CRC 3CD5490B
     Copy CRC 3CD5490B
     Accurately ripped (confidence 3)  [744897DF]
     Copy OK
Track  7
     Filename G:\Mine\my documents\My Music\EAC rips\flac\Various - 2007 - Endzeit Bunkertracks [Act III] disc 3\Various - 2007 - Endzeit Bunkertracks [Act III] disc 3 - 07 - Virus.wav
     Pre-gap length  0:00:01.00
     Peak level 92.5 %
     Track quality 100.0 %
     Test CRC 7657A85A
     Copy CRC 7657A85A
     Accurately ripped (confidence 3)  [0061B077]
     Copy OK
Track  8
     Filename G:\Mine\my documents\My Music\EAC rips\flac\Various - 2007 - Endzeit Bunkertracks [Act III] disc 3\Various - 2007 - Endzeit Bunkertracks [Act III] disc 3 - 08 - Game Called Life.wav
     Pre-gap length  0:00:01.00
     Peak level 100.0 %
     Track quality 99.9 %
     Test CRC 8EC65D7F
     Copy CRC 8EC65D7F
     Accurately ripped (confidence 3)  [B5F9AA89]
     Copy OK
Track  9
     Filename G:\Mine\my documents\My Music\EAC rips\flac\Various - 2007 - Endzeit Bunkertracks [Act III] disc 3\Various - 2007 - Endzeit Bunkertracks [Act III] disc 3 - 09 - Shadows.wav
     Pre-gap length  0:00:01.00
     Peak level 99.9 %
     Track quality 100.0 %
     Test CRC EE6CFA50
     Copy CRC EE6CFA50
     Accurately ripped (confidence 3)  [D5FE0DD3]
     Copy OK
Track 10
     Filename G:\Mine\my documents\My Music\EAC rips\flac\Various - 2007 - Endzeit Bunkertracks [Act III] disc 3\Various - 2007 - Endzeit Bunkertracks [Act III] disc 3 - 10 - Stammheim (Edit).wav
     Pre-gap length  0:00:01.00
     Peak level 100.0 %
     Track quality 99.9 %
     Test CRC 87A3E47F
     Copy CRC 87A3E47F
     Accurately ripped (confidence 3)  [BD3A8308]
     Copy OK
Track 11
     Filename G:\Mine\my documents\My Music\EAC rips\flac\Various - 2007 - Endzeit Bunkertracks [Act III] disc 3\Various - 2007 - Endzeit Bunkertracks [Act III] disc 3 - 11 - The Gun Song (Essence Of Mind Mix).wav
     Pre-gap length  0:00:01.00
     Peak level 100.0 %
     Track quality 100.0 %
     Test CRC A71D6F64
     Copy CRC A71D6F64
     Accurately ripped (confidence 3)  [CB858112]
     Copy OK
Track 12
     Filename G:\Mine\my documents\My Music\EAC rips\flac\Various - 2007 - Endzeit Bunkertracks [Act III] disc 3\Various - 2007 - Endzeit Bunkertracks [Act III] disc 3 - 12 - Rotten To The Core (Soliary Experiments Remix).wav
     Pre-gap length  0:00:01.00
     Peak level 98.8 %
     Track quality 100.0 %
     Test CRC 548E1459
     Copy CRC 548E1459
     Accurately ripped (confidence 3)  [85CE8229]
     Copy OK
Track 13
     Filename G:\Mine\my documents\My Music\EAC rips\flac\Various - 2007 - Endzeit Bunkertracks [Act III] disc 3\Various - 2007 - Endzeit Bunkertracks [Act III] disc 3 - 13 - Lone Ranger (C-Drone Defect Mix).wav
     Pre-gap length  0:00:00.74
     Peak level 100.0 %
     Track quality 100.0 %
     Test CRC 954BE1EE
     Copy CRC 954BE1EE
     Accurately ripped (confidence 3)  [B54C7567]
     Copy OK
Track 14
     Filename G:\Mine\my documents\My Music\EAC rips\flac\Various - 2007 - Endzeit Bunkertracks [Act III] disc 3\Various - 2007 - Endzeit Bunkertracks [Act III] disc 3 - 14 - All Over (Ah Cama-Sotz Mix).wav
     Pre-gap length  0:00:01.00
     Peak level 100.0 %
     Track quality 100.0 %
     Test CRC DDB26206
     Copy CRC DDB26206
     Accurately ripped (confidence 3)  [006A4C73]
     Copy OK
Track 15
     Filename G:\Mine\my documents\My Music\EAC rips\flac\Various - 2007 - Endzeit Bunkertracks [Act III] disc 3\Various - 2007 - Endzeit Bunkertracks [Act III] disc 3 - 15 - Plastic Face.wav
     Pre-gap length  0:00:01.00
     Peak level 98.0 %
     Track quality 100.0 %
     Test CRC A7A6A0FF
     Copy CRC A7A6A0FF
     Accurately ripped (confidence 3)  [625B4BEA]
     Copy OK
Track 16
     Filename G:\Mine\my documents\My Music\EAC rips\flac\Various - 2007 - Endzeit Bunkertracks [Act III] disc 3\Various - 2007 - Endzeit Bunkertracks [Act III] disc 3 - 16 - No More Room In Hell.wav
     Pre-gap length  0:00:01.00
     Peak level 90.4 %
     Track quality 100.0 %
     Test CRC A95C52A3
     Copy CRC A95C52A3
     Accurately ripped (confidence 3)  [CFBAEE48]
     Copy OK
Track 17
     Filename G:\Mine\my documents\My Music\EAC rips\flac\Various - 2007 - Endzeit Bunkertracks [Act III] disc 3\Various - 2007 - Endzeit Bunkertracks [Act III] disc 3 - 17 - Existe (Violated Virgin Remix).wav
     Pre-gap length  0:00:01.00
     Peak level 100.0 %
     Track quality 100.0 %
     Test CRC 686F8FBE
     Copy CRC 686F8FBE
     Accurately ripped (confidence 3)  [DD31B974]
     Copy OK
All tracks accurately ripped
No errors occurred
End of status report
Код:
Exact Audio Copy V0.99 prebeta 5 from 4. May 2009
EAC extraction logfile from 15. May 2009, 2:55
Various / Endzeit Bunkertracks [Act III] disc 4
Used drive  :   JLMS  DVD-ROM LTD-166S   Adapter: 0  ID: 1
Read mode               : Secure
Utilize accurate stream : Yes
Defeat audio cache      : Yes
Make use of C2 pointers : No
Read offset correction                      : 12
Overread into Lead-In and Lead-Out          : No
Fill up missing offset samples with silence : Yes
Delete leading and trailing silent blocks   : No
Null samples used in CRC calculations       : Yes
Used interface                              : Native Win32 interface for Win NT & 2000
Gap handling                                : Appended to previous track
Used output format              : User Defined Encoder
Selected bitrate                : 192 kBit/s
Quality                         : High
Add ID3 tag                     : No
Command line compressor         : C:\Program Files\Exact Audio Copy\Flac\flac.exe
Additional command line options : -V -8 -T "artist=%a" -T "title=%t" -T "album=%g" -T "date=%y" -T "tracknumber=%n" -T "genre=%m" %s
TOC of the extracted CD
     Track |   Start  |  Length  | Start sector | End sector
    ---------------------------------------------------------
        1  |  0:00.00 |  5:14.59 |         0    |    23608
        2  |  5:14.59 |  4:29.71 |     23609    |    43854
        3  |  9:44.55 |  4:39.20 |     43855    |    64799
        4  | 14:24.00 |  4:18.48 |     64800    |    84197
        5  | 18:42.48 |  3:58.50 |     84198    |   102097
        6  | 22:41.23 |  3:50.02 |    102098    |   119349
        7  | 26:31.25 |  4:24.16 |    119350    |   139165
        8  | 30:55.41 |  5:07.47 |    139166    |   162237
        9  | 36:03.13 |  5:15.12 |    162238    |   185874
       10  | 41:18.25 |  4:46.34 |    185875    |   207358
       11  | 46:04.59 |  6:01.69 |    207359    |   234502
       12  | 52:06.53 |  4:24.11 |    234503    |   254313
       13  | 56:30.64 |  4:46.44 |    254314    |   275807
       14  | 61:17.33 |  4:51.30 |    275808    |   297662
       15  | 66:08.63 |  4:11.38 |    297663    |   316525
       16  | 70:20.26 |  4:07.36 |    316526    |   335086
       17  | 74:27.62 |  3:56.52 |    335087    |   352838
Track  1
     Filename G:\Mine\my documents\My Music\EAC rips\flac\Various - 2007 - Endzeit Bunkertracks [Act III] disc 4\Various - 2007 - Endzeit Bunkertracks [Act III] disc 4 - 01 - Man (Mothers Against Noise).wav
     Pre-gap length  0:00:02.00
     Peak level 100.0 %
     Track quality 99.9 %
     Test CRC 06B7A0FF
     Copy CRC 06B7A0FF
     Accurately ripped (confidence 3)  [C574660C]
     Copy OK
Track  2
     Filename G:\Mine\my documents\My Music\EAC rips\flac\Various - 2007 - Endzeit Bunkertracks [Act III] disc 4\Various - 2007 - Endzeit Bunkertracks [Act III] disc 4 - 02 - Menschen.wav
     Pre-gap length  0:00:01.00
     Peak level 95.3 %
     Track quality 99.9 %
     Test CRC 622B1BCA
     Copy CRC 622B1BCA
     Accurately ripped (confidence 3)  [AEDCDA0D]
     Copy OK
Track  3
     Filename G:\Mine\my documents\My Music\EAC rips\flac\Various - 2007 - Endzeit Bunkertracks [Act III] disc 4\Various - 2007 - Endzeit Bunkertracks [Act III] disc 4 - 03 - Nothing But A Mashine.wav
     Pre-gap length  0:00:01.00
     Peak level 100.0 %
     Track quality 99.9 %
     Test CRC 93CDB18B
     Copy CRC 93CDB18B
     Accurately ripped (confidence 3)  [0787EB73]
     Copy OK
Track  4
     Filename G:\Mine\my documents\My Music\EAC rips\flac\Various - 2007 - Endzeit Bunkertracks [Act III] disc 4\Various - 2007 - Endzeit Bunkertracks [Act III] disc 4 - 04 - Coppin' It Sweet (Noisuf-X Mix).wav
     Pre-gap length  0:00:01.00
     Peak level 100.0 %
     Track quality 99.9 %
     Test CRC BFC0F780
     Copy CRC BFC0F780
     Accurately ripped (confidence 3)  [63349A3F]
     Copy OK
Track  5
     Filename G:\Mine\my documents\My Music\EAC rips\flac\Various - 2007 - Endzeit Bunkertracks [Act III] disc 4\Various - 2007 - Endzeit Bunkertracks [Act III] disc 4 - 05 - Extreme.wav
     Pre-gap length  0:00:00.74
     Peak level 100.0 %
     Track quality 100.0 %
     Test CRC 11F383C6
     Copy CRC 11F383C6
     Accurately ripped (confidence 3)  [CFCC7186]
     Copy OK
Track  6
     Filename G:\Mine\my documents\My Music\EAC rips\flac\Various - 2007 - Endzeit Bunkertracks [Act III] disc 4\Various - 2007 - Endzeit Bunkertracks [Act III] disc 4 - 06 - Adrenaline (Endzeit Edit).wav
     Pre-gap length  0:00:01.00
     Peak level 100.0 %
     Track quality 100.0 %
     Test CRC 1721EC7B
     Copy CRC 1721EC7B
     Accurately ripped (confidence 3)  [1CBBCDCF]
     Copy OK
Track  7
     Filename G:\Mine\my documents\My Music\EAC rips\flac\Various - 2007 - Endzeit Bunkertracks [Act III] disc 4\Various - 2007 - Endzeit Bunkertracks [Act III] disc 4 - 07 - Still Born Defect (Nemesis Mix).wav
     Pre-gap length  0:00:01.00
     Peak level 94.4 %
     Track quality 100.0 %
     Test CRC 66876BB6
     Copy CRC 66876BB6
     Accurately ripped (confidence 3)  [1B17A558]
     Copy OK
Track  8
     Filename G:\Mine\my documents\My Music\EAC rips\flac\Various - 2007 - Endzeit Bunkertracks [Act III] disc 4\Various - 2007 - Endzeit Bunkertracks [Act III] disc 4 - 08 - Anxiety Neuroses (feat. Stahlnebel).wav
     Pre-gap length  0:00:01.00
     Peak level 100.0 %
     Track quality 100.0 %
     Test CRC 1D6A325B
     Copy CRC 1D6A325B
     Accurately ripped (confidence 3)  [A60DAD85]
     Copy OK
Track  9
     Filename G:\Mine\my documents\My Music\EAC rips\flac\Various - 2007 - Endzeit Bunkertracks [Act III] disc 4\Various - 2007 - Endzeit Bunkertracks [Act III] disc 4 - 09 - Strawberry Panic.wav
     Pre-gap length  0:00:01.00
     Peak level 74.9 %
     Track quality 100.0 %
     Test CRC 01451A03
     Copy CRC 01451A03
     Accurately ripped (confidence 3)  [67D5EA85]
     Copy OK
Track 10
     Filename G:\Mine\my documents\My Music\EAC rips\flac\Various - 2007 - Endzeit Bunkertracks [Act III] disc 4\Various - 2007 - Endzeit Bunkertracks [Act III] disc 4 - 10 - Skullfucker (Synnack Mix).wav
     Pre-gap length  0:00:01.00
     Peak level 100.0 %
     Track quality 100.0 %
     Test CRC 57E948FA
     Copy CRC 57E948FA
     Accurately ripped (confidence 3)  [CFCFC64A]
     Copy OK
Track 11
     Filename G:\Mine\my documents\My Music\EAC rips\flac\Various - 2007 - Endzeit Bunkertracks [Act III] disc 4\Various - 2007 - Endzeit Bunkertracks [Act III] disc 4 - 11 - WWW.wav
     Pre-gap length  0:00:01.00
     Peak level 100.0 %
     Track quality 100.0 %
     Test CRC ED1C7962
     Copy CRC ED1C7962
     Accurately ripped (confidence 3)  [21C0B4C0]
     Copy OK
Track 12
     Filename G:\Mine\my documents\My Music\EAC rips\flac\Various - 2007 - Endzeit Bunkertracks [Act III] disc 4\Various - 2007 - Endzeit Bunkertracks [Act III] disc 4 - 12 - The Offering.wav
     Pre-gap length  0:00:01.00
     Peak level 100.0 %
     Track quality 100.0 %
     Test CRC DB267C1A
     Copy CRC DB267C1A
     Accurately ripped (confidence 3)  [4937AF56]
     Copy OK
Track 13
     Filename G:\Mine\my documents\My Music\EAC rips\flac\Various - 2007 - Endzeit Bunkertracks [Act III] disc 4\Various - 2007 - Endzeit Bunkertracks [Act III] disc 4 - 13 - Numb.wav
     Pre-gap length  0:00:01.00
     Peak level 100.0 %
     Track quality 100.0 %
     Test CRC D8486A3D
     Copy CRC D8486A3D
     Accurately ripped (confidence 3)  [455F552F]
     Copy OK
Track 14
     Filename G:\Mine\my documents\My Music\EAC rips\flac\Various - 2007 - Endzeit Bunkertracks [Act III] disc 4\Various - 2007 - Endzeit Bunkertracks [Act III] disc 4 - 14 - Morituri Te Salutant.wav
     Pre-gap length  0:00:01.00
     Peak level 94.4 %
     Track quality 99.8 %
     Test CRC 4233763F
     Copy CRC 4233763F
     Accurately ripped (confidence 3)  [823D77A6]
     Copy OK
Track 15
     Filename G:\Mine\my documents\My Music\EAC rips\flac\Various - 2007 - Endzeit Bunkertracks [Act III] disc 4\Various - 2007 - Endzeit Bunkertracks [Act III] disc 4 - 15 - Das ist Elektro.wav
     Pre-gap length  0:00:01.00
     Peak level 94.4 %
     Track quality 100.0 %
     Test CRC ED0B25DB
     Copy CRC ED0B25DB
     Accurately ripped (confidence 3)  [DDA1001A]
     Copy OK
Track 16
     Filename G:\Mine\my documents\My Music\EAC rips\flac\Various - 2007 - Endzeit Bunkertracks [Act III] disc 4\Various - 2007 - Endzeit Bunkertracks [Act III] disc 4 - 16 - Mine (Endzeit Mix).wav
     Pre-gap length  0:00:01.00
     Peak level 100.0 %
     Track quality 100.0 %
     Test CRC EEE03F0B
     Copy CRC EEE03F0B
     Accurately ripped (confidence 3)  [DD7046C4]
     Copy OK
Track 17
     Filename G:\Mine\my documents\My Music\EAC rips\flac\Various - 2007 - Endzeit Bunkertracks [Act III] disc 4\Various - 2007 - Endzeit Bunkertracks [Act III] disc 4 - 17 - Destroy the Wall (feat. Sara Noxx) (Supreme Court Remix).wav
     Pre-gap length  0:00:01.00
     Peak level 100.0 %
     Track quality 99.7 %
     Test CRC 65851454
     Copy CRC 65851454
     Accurately ripped (confidence 3)  [0F0428B7]
     Copy OK
All tracks accurately ripped
No errors occurred
End of status report
Код:
[pre]REM GENRE Industrial
REM DATE 2007
REM DISCID EB128310
REM COMMENT "ExactAudioCopy v0.99pb5"
PERFORMER "Various"
TITLE "Endzeit Bunkertracks [Act III] disc 1"
FILE "01 - Nachtmahr - Boom Boom Boom.wav" WAVE
TRACK 01 AUDIO
TITLE "Boom Boom Boom"
PERFORMER "Nachtmahr"
INDEX 01 00:00:00
TRACK 02 AUDIO
TITLE "Hit Me Hard (As Hard As You Can Mix)"
PERFORMER "Noisuf-X"
INDEX 00 03:12:36
FILE "02 - Noisuf-X - Hit Me Hard (As Hard As You Can Mix).wav" WAVE
INDEX 01 00:00:00
TRACK 03 AUDIO
TITLE "Dead Or Alive"
PERFORMER "Krzon"
INDEX 00 04:22:26
FILE "03 - Krzon - Dead Or Alive.wav" WAVE
INDEX 01 00:00:00
TRACK 04 AUDIO
TITLE "We Are Machines (Rumble Remix By Soman)"
PERFORMER "Kombat Unit"
INDEX 00 05:17:61
FILE "04 - Kombat Unit - We Are Machines (Rumble Remix By Soman).wav" WAVE
INDEX 01 00:00:00
TRACK 05 AUDIO
TITLE "Battleground 07 (Rumsfeld Mix)"
PERFORMER "Leaether Strip"
INDEX 00 04:31:34
FILE "05 - Leaether Strip - Battleground 07 (Rumsfeld Mix).wav" WAVE
INDEX 01 00:00:00
TRACK 06 AUDIO
TITLE "Praise The Fallen (Acylum Mix)"
PERFORMER "Wynardtage"
INDEX 00 05:08:64
FILE "06 - Wynardtage - Praise The Fallen (Acylum Mix).wav" WAVE
INDEX 01 00:00:00
TRACK 07 AUDIO
TITLE "Total War"
PERFORMER "Uberbyte"
INDEX 00 05:44:22
FILE "07 - UberByte - Total War.wav" WAVE
INDEX 01 00:00:00
TRACK 08 AUDIO
TITLE "Dented Halo (Panel Beaten Remix By Skinjob)"
PERFORMER "Cylab"
INDEX 00 05:21:54
FILE "08 - Cylab - Dented Halo (Panel Beaten Remix By SkinjoB).wav" WAVE
INDEX 01 00:00:00
TRACK 09 AUDIO
TITLE "Estranged"
PERFORMER "Acretongue"
INDEX 00 04:59:26
FILE 09 - Acretongue - Estranged.wav" WAVE
INDEX 01 00:00:00
TRACK 10 AUDIO
TITLE "E-Race Generation (Angelspit Mix)"
PERFORMER "Helalyn Flowers"
INDEX 00 04:52:56
FILE "10 - Helalyn Flowers - E-Race Generation (Angelspit Mix).wav" WAVE
INDEX 01 00:00:00
TRACK 11 AUDIO
TITLE "Burn Your Soul"
PERFORMER "The Judas Coven"
INDEX 00 04:24:21
FILE "11 - The Judas Coven - Burn Your Soul.wav" WAVE
INDEX 01 00:00:00
TRACK 12 AUDIO
TITLE "Skullfuck"
PERFORMER "Modulate"
INDEX 00 05:01:57
FILE "12 - Modulate - Skullfuck.wav" WAVE
INDEX 01 00:00:00
TRACK 13 AUDIO
TITLE "MMM Papscraper I Love You (Cervello Elettronico Mix)"
PERFORMER "Caustic"
INDEX 00 04:36:46
FILE "13 - Caustic - Mmm Papscraper I Love You (Cervello Elettronico Mix).wav" WAVE
INDEX 01 00:00:00
TRACK 14 AUDIO
TITLE "Umbrae Sub Noctem (Endzeit Mix)"
PERFORMER "Neikka Rpm"
INDEX 00 06:09:18
FILE "14 - Neikka RPM - Umbrae Sub Noctem (Endzeit Mix).wav" WAVE
INDEX 01 00:00:00
TRACK 15 AUDIO
TITLE "Misery Loves Company"
PERFORMER "Angels On Acid"
INDEX 00 03:28:01
FILE "15 - Angels On Acid - Misery Loves Company.wav" WAVE
INDEX 01 00:00:00
TRACK 16 AUDIO
TITLE "Journey To Descent (V1)"
PERFORMER "Unter Null"
INDEX 00 05:56:23
FILE "16 - Unter Null - Journey To Descent (V1).wav" WAVE
INDEX 01 00:00:00
Код:
REM GENRE Industrial
REM DATE 2007
REM DISCID F4125A10
REM COMMENT "ExactAudioCopy v0.99pb5"
PERFORMER "Various"
TITLE "Endzeit Bunkertracks [Act III] disc 2"
FILE "01 - Faderhead  - Dirtygrrrls  Dirtybois (Modulate Mix).wav" WAVE
  TRACK 01 AUDIO
    TITLE "Dirtygirrrls / Dirtybois (Modulate Mix)"
    PERFORMER "Faderhead"
    INDEX 01 00:00:00
  TRACK 02 AUDIO
    TITLE "Mask"
    PERFORMER "Soman"
    INDEX 00 04:52:08
FILE "02 - Soman  - Mask.wav" WAVE
    INDEX 01 00:00:00
  TRACK 03 AUDIO
    TITLE "Arm Of Justice (Rough Mix)"
    PERFORMER "Sam"
    INDEX 00 05:32:24
FILE "03 - SAM - Arm Of Justice (Rough Mix).wav" WAVE
    INDEX 01 00:00:00
  TRACK 04 AUDIO
    TITLE "There Is A Riot Going On"
    PERFORMER "Implant"
    INDEX 00 05:57:27
FILE "04 - Implant  - There Is A Riot Going On.wav" WAVE
    INDEX 01 00:00:00
  TRACK 05 AUDIO
    TITLE "Hate This (X-Fusion Mix)"
    PERFORMER "Grendel"
    INDEX 00 05:52:42
FILE "05 - Grendel  - Hate This (X-Fusion Mix).wav" WAVE
    INDEX 01 00:00:00
  TRACK 06 AUDIO
    TITLE "Hate Me (Leaether Strip Mix)"
    PERFORMER "Suicide Commando"
    INDEX 00 03:59:26
FILE "06 - Suicide Commando  - Hate Me (Leaether Strip Mix).wav" WAVE
    INDEX 01 00:00:00
  TRACK 07 AUDIO
    TITLE "Anthem (Steinkind Mix)"
    PERFORMER "Fgfc820"
    INDEX 00 04:36:12
FILE "07 - FGFC820  - Anthem (Steinkind Mix).wav" WAVE
    INDEX 01 00:00:00
  TRACK 08 AUDIO
    TITLE "Ungethuem (Edit)"
    PERFORMER "Dunkelwerk"
    INDEX 00 06:12:57
FILE "08 - Dunkelwerk  - Ungethuem (Edit).wav" WAVE
    INDEX 01 00:00:00
  TRACK 09 AUDIO
    TITLE "Bitch From Hell (DJ1)"
    PERFORMER "Trimetrick"
    INDEX 00 03:35:65
FILE "09 - Trimetrick  - Bitch From Hell (DJ1).wav" WAVE
    INDEX 01 00:00:00
  TRACK 10 AUDIO
    TITLE "Distress Signal (C-Drone Defect Mix)"
    PERFORMER "Skoyz"
    INDEX 00 05:12:54
FILE "10 - Skoyz  - Distress Signal (C-Drone Defect Mix).wav" WAVE
    INDEX 01 00:00:00
  TRACK 11 AUDIO
    TITLE "Nyctophobia (Straftanz Mix)"
    PERFORMER "Painbastard"
    INDEX 00 05:50:58
FILE "11 - Painbastard  - Nyctophobia (Straftanz Mix).wav" WAVE
    INDEX 01 00:00:00
  TRACK 12 AUDIO
    TITLE "Different"
    PERFORMER "Essence Of Mind"
    INDEX 00 04:25:47
FILE "12 - Essence Of Mind  - Different.wav" WAVE
    INDEX 01 00:00:00
  TRACK 13 AUDIO
    TITLE "Exorcism"
    PERFORMER "FabrikC"
    INDEX 00 04:56:66
FILE "13 - FabrikC  - Exorcism.wav" WAVE
    INDEX 01 00:00:00
  TRACK 14 AUDIO
    TITLE "Pure Evil (Hardbeat Mix)"
    PERFORMER "Detune X"
    INDEX 00 03:56:46
FILE "14 - Detune X - Pure Evil (Hardbeat Mix).wav" WAVE
    INDEX 01 00:00:00
  TRACK 15 AUDIO
    TITLE "Enhancer (Cervello Elettronico Mix)"
    PERFORMER "C/a/t"
    INDEX 00 03:21:15
FILE "15 - CAT - Enhancer (Cervello Elettronico Mix).wav" WAVE
    INDEX 01 00:00:00
  TRACK 16 AUDIO
    TITLE "Taste Of Flesh"
    PERFORMER "Banister"
    INDEX 00 04:37:11
FILE "16 - Banister - Taste Of Flesh.wav" WAVE
    INDEX 01 00:00:00
Код:
REM GENRE Industrial
REM DATE 2007
REM DISCID F1127D11
REM COMMENT "ExactAudioCopy v0.99pb5"
PERFORMER "Various"
TITLE "Endzeit Bunkertracks [Act III] disc 3"
FILE "01 - Radium226  - Nuclear Violation.wav" WAVE
  TRACK 01 AUDIO
    TITLE "Nuclear Violation"
    PERFORMER "Radium226"
    INDEX 01 00:00:00
  TRACK 02 AUDIO
    TITLE "I Hate You"
    PERFORMER "Prototype"
    INDEX 00 04:35:05
FILE "02 - Prototype - I Hate You.wav" WAVE
    INDEX 01 00:00:00
  TRACK 03 AUDIO
    TITLE "Rape (Exclusive Edit)"
    PERFORMER "Acylum"
    INDEX 00 05:30:36
FILE "03 - Acylum - Rape (Exclusive Edit).wav" WAVE
    INDEX 01 00:00:00
  TRACK 04 AUDIO
    TITLE "Last Tribe"
    PERFORMER "Endif Feat. Replogen"
    INDEX 00 05:11:67
FILE "04 - Endif vs. Replogen  - Last Tribe.wav" WAVE
    INDEX 01 00:00:00
  TRACK 05 AUDIO
    TITLE "Infiltrat"
    PERFORMER "Complex Mind"
    INDEX 00 04:10:69
FILE "05 - Complex Mind  - Infiltrat.wav" WAVE
    INDEX 01 00:00:00
  TRACK 06 AUDIO
    TITLE "Das Oontz"
    PERFORMER "Sebastian Komor"
    INDEX 00 04:12:37
FILE "06 - Sebastian Komor  - Das Oontz.wav" WAVE
    INDEX 01 00:00:00
  TRACK 07 AUDIO
    TITLE "Virus"
    PERFORMER "Schnarph!"
    INDEX 00 05:03:64
FILE 07 - SHNARPH!  - Virus.wav" WAVE
    INDEX 01 00:00:00
  TRACK 08 AUDIO
    TITLE "Game Called Life"
    PERFORMER "Experiment Haywire"
    INDEX 00 03:36:16
FILE "08 - Experiment Haywire  - Game Called Life.wav" WAVE
    INDEX 01 00:00:00
  TRACK 09 AUDIO
    TITLE "Shadows"
    PERFORMER "Splatter Squall"
    INDEX 00 04:39:70
FILE "09 - Splatter Squall  - Shadows.wav" WAVE
    INDEX 01 00:00:00
  TRACK 10 AUDIO
    TITLE "Stammheim (Edit)"
    PERFORMER "[:SITD:]"
    INDEX 00 04:12:30
FILE "10 - [S.I.T.D.] - Stammheim (Edit).wav" WAVE
    INDEX 01 00:00:00
  TRACK 11 AUDIO
    TITLE "The Gun Song (Essence Of Mind Mix)"
    PERFORMER "Ayria"
    INDEX 00 05:35:29
FILE "11 - Ayria  - The Gun Song (Essence Of Mind Mix).wav" WAVE
    INDEX 01 00:00:00
  TRACK 12 AUDIO
    TITLE "Rotten To The Core (Soliary Experiments Remix)"
    PERFORMER "X-Fusion"
    INDEX 00 04:38:47
FILE "12 - X-Fusion - Rotten To The Core (Solitary Experiments Remix).wav" WAVE
    INDEX 01 00:00:00
  TRACK 13 AUDIO
    TITLE "Lone Ranger (C-Drone Defect Mix)"
    PERFORMER "32crash"
    INDEX 00 05:20:02
FILE "13 - 32Crash  - Lone Ranger (C-Drone Defect Mix).wav" WAVE
    INDEX 01 00:00:00
  TRACK 14 AUDIO
    TITLE "All Over (Ah Cama-Sotz Mix)"
    PERFORMER "Monolith"
    INDEX 00 05:26:66
FILE "14 - Monolith  - All Over (Ah Cama-Sotz Mix).wav" WAVE
    INDEX 01 00:00:00
  TRACK 15 AUDIO
    TITLE "Plastic Face"
    PERFORMER "Cervello Elettronico"
    INDEX 00 03:40:59
FILE "15 - Cervello Elettronico  - Plastic Face.wav" WAVE
    INDEX 01 00:00:00
  TRACK 16 AUDIO
    TITLE "No More Room In Hell"
    PERFORMER "X-RX"
    INDEX 00 05:26:21
FILE "16 - X-RX  - No More Room In Hell.wav" WAVE
    INDEX 01 00:00:00
  TRACK 17 AUDIO
    TITLE "Existe (Violated Virgin Remix)"
    PERFORMER "Virgins O.R. Pigeons"
    INDEX 00 03:35:72
FILE "17 - Virgins O.R. Pigeons  - Existe (Violated Virgin Remix).wav" WAVE
    INDEX 01 00:00:00
Код:
REM GENRE Industrial
REM DATE 2007
REM DISCID 0D126011
REM COMMENT "ExactAudioCopy v0.99pb5"
PERFORMER "Various"
TITLE "Endzeit Bunkertracks [Act III] disc 4"
FILE "01 - SkinjoB  - MAN (Mothers Against Noise).wav" WAVE
  TRACK 01 AUDIO
    TITLE "Man (Mothers Against Noise)"
    PERFORMER "Skinjob"
    INDEX 01 00:00:00
  TRACK 02 AUDIO
    TITLE "Menschen"
    PERFORMER "Schallfaktor"
    INDEX 00 05:13:59
FILE "02 - Schallfaktor  - Menschen.wav" WAVE
    INDEX 01 00:00:00
  TRACK 03 AUDIO
    TITLE "Nothing But A Mashine"
    PERFORMER "Stahlfrequenz"
    INDEX 00 04:28:71
FILE "03 - Stahlfrequenz - Nothing But A Mashine.wav" WAVE
    INDEX 01 00:00:00
  TRACK 04 AUDIO
    TITLE "Coppin' It Sweet (Noisuf-X Mix)"
    PERFORMER "Alter der Ruine"
    INDEX 00 04:38:20
FILE "04 - Alter Der Ruine  - Coppin' It Sweet (Noisuf-X Mix).wav" WAVE
    INDEX 01 00:00:00
  TRACK 05 AUDIO
    TITLE "Extreme"
    PERFORMER "Propulsion"
    INDEX 00 04:17:49
FILE "05 - Propulsion - Extreme.wav" WAVE
    INDEX 01 00:00:00
  TRACK 06 AUDIO
    TITLE "Adrenaline (Endzeit Edit)"
    PERFORMER "Diskonnekted"
    INDEX 00 03:57:50
FILE "06 - Diskonnekted - Adrenaline (Endzeit Edit).wav" WAVE
    INDEX 01 00:00:00
  TRACK 07 AUDIO
    TITLE "Still Born Defect (Nemesis Mix)"
    PERFORMER "Dawn Of Ashes"
    INDEX 00 03:49:02
FILE "07 - Dawn Of Ashes  - Still Born Defect (Nemesis Mix).wav" WAVE
    INDEX 01 00:00:00
  TRACK 08 AUDIO
    TITLE "Anxiety Neuroses (feat. Stahlnebel)"
    PERFORMER "Vision Anomaly"
    INDEX 00 04:23:16
FILE "08 - Vision Anomaly Feat. Stahlnebel  - Anxiety Neuroses.wav" WAVE
    INDEX 01 00:00:00
  TRACK 09 AUDIO
    TITLE "Strawberry Panic"
    PERFORMER "De_Tot_Cor"
    INDEX 00 05:06:47
FILE "09 - De_ Tot_ Cor - Strawberry Panic.wav" WAVE
    INDEX 01 00:00:00
  TRACK 10 AUDIO
    TITLE "Skullfucker (Synnack Mix)"
    PERFORMER "Terorfakt"
    INDEX 00 05:14:12
FILE "10 - Terrorfakt  - Skullfucker (Synnack Mix).wav" WAVE
    INDEX 01 00:00:00
  TRACK 11 AUDIO
    TITLE "WWW"
    PERFORMER "Individual Totem"
    INDEX 00 04:45:34
FILE "11 - Individual Totem  - WWW.wav" WAVE
    INDEX 01 00:00:00
  TRACK 12 AUDIO
    TITLE "The Offering"
    PERFORMER "Inure"
    INDEX 00 06:00:69
FILE "12 - Inure  - The Offering.wav" WAVE
    INDEX 01 00:00:00
  TRACK 13 AUDIO
    TITLE "Numb"
    PERFORMER "Chaoskult"
    INDEX 00 04:23:11
FILE "13 - Chaoskult  - Numb.wav" WAVE
    INDEX 01 00:00:00
  TRACK 14 AUDIO
    TITLE "Morituri Te Salutant"
    PERFORMER "C-Drone Defect"
    INDEX 00 04:45:44
FILE "14 - C-Drone Defect - Morituri Te Salutant.wav" WAVE
    INDEX 01 00:00:00
  TRACK 15 AUDIO
    TITLE "Das ist Elektro"
    PERFORMER "Noisex"
    INDEX 00 04:50:30
FILE "15 - Noisex  - Das Ist Elektro.wav" WAVE
    INDEX 01 00:00:00
  TRACK 16 AUDIO
    TITLE "Mine (Endzeit Mix)"
    PERFORMER "Psy'aviah"
    INDEX 00 04:10:38
FILE "16 - Psy'Aviah  - Mine (Endzeit Mix).wav" WAVE
    INDEX 01 00:00:00
  TRACK 17 AUDIO
    TITLE "Destroy the Wall (feat. Sara Noxx) (Supreme Court Remix)"
    PERFORMER "Isis Signum"
    INDEX 00 04:06:36
FILE "17 - Isis Signum Feat. Sara Noxx  - Destroy The Wall (Supreme Court Remix).wav" WAVE
    INDEX 01 00:00:00
Код:
[pre]
-----------------------------------------------------------
Started at: четверг, 30. 12. 2010. - 16:00.24
16 files found
01 -===- C:\Users\iReam\Music\Various - 2007 - Endzeit Bunkertracks [Act III]\disc 1\01 - Nachtmahr - Boom Boom Boom.flac
Extracted successfully
Conclusion: This track looks like CDDA with probability 100%
Tempfile successfully deleted.
02 -===- C:\Users\iReam\Music\Various - 2007 - Endzeit Bunkertracks [Act III]\disc 1\02 - Noisuf-X - Hit Me Hard (As Hard As You Can Mix).flac
Extracted successfully
Conclusion: This track looks like CDDA with probability 100%
Tempfile successfully deleted.
03 -===- C:\Users\iReam\Music\Various - 2007 - Endzeit Bunkertracks [Act III]\disc 1\03 - Krzon - Dead Or Alive.flac
Extracted successfully
Conclusion: This track looks like MPEG with probability 95%
Tempfile successfully deleted.
04 -===- C:\Users\iReam\Music\Various - 2007 - Endzeit Bunkertracks [Act III]\disc 1\04 - Kombat Unit - We Are Machines (Rumble Remix By Soman).flac
Extracted successfully
Conclusion: This track looks like CDDA with probability 100%
Tempfile successfully deleted.
05 -===- C:\Users\iReam\Music\Various - 2007 - Endzeit Bunkertracks [Act III]\disc 1\05 - Leaether Strip - Battleground 07 (Rumsfeld Mix).flac
Extracted successfully
Conclusion: This track looks like CDDA with probability 100%
Tempfile successfully deleted.
06 -===- C:\Users\iReam\Music\Various - 2007 - Endzeit Bunkertracks [Act III]\disc 1\06 - Wynardtage - Praise The Fallen (Acylum Mix).flac
Extracted successfully
Conclusion: This track looks like CDDA with probability 100%
Tempfile successfully deleted.
07 -===- C:\Users\iReam\Music\Various - 2007 - Endzeit Bunkertracks [Act III]\disc 1\07 - UberByte - Total War.flac
Extracted successfully
Conclusion: This track looks like CDDA with probability 100%
Tempfile successfully deleted.
08 -===- C:\Users\iReam\Music\Various - 2007 - Endzeit Bunkertracks [Act III]\disc 1\08 - Cylab - Dented Halo (Panel Beaten Remix By SkinjoB).flac
Extracted successfully
Conclusion: This track looks like CDDA with probability 99%
Tempfile successfully deleted.
09 -===- C:\Users\iReam\Music\Various - 2007 - Endzeit Bunkertracks [Act III]\disc 1\09 - Acretongue - Estranged.flac
Extracted successfully
Conclusion: This track looks like CDDA with probability 100%
Tempfile successfully deleted.
10 -===- C:\Users\iReam\Music\Various - 2007 - Endzeit Bunkertracks [Act III]\disc 1\10 - Helalyn Flowers - E-Race Generation (Angelspit Mix).flac
Extracted successfully
Conclusion: This track looks like CDDA with probability 100%
Tempfile successfully deleted.
11 -===- C:\Users\iReam\Music\Various - 2007 - Endzeit Bunkertracks [Act III]\disc 1\11 - The Judas Coven - Burn Your Soul.flac
Extracted successfully
Conclusion: This track looks like CDDA with probability 99%
Tempfile successfully deleted.
12 -===- C:\Users\iReam\Music\Various - 2007 - Endzeit Bunkertracks [Act III]\disc 1\12 - Modulate - Skullfuck.flac
Extracted successfully
Conclusion: This track looks like CDDA with probability 100%
Tempfile successfully deleted.
13 -===- C:\Users\iReam\Music\Various - 2007 - Endzeit Bunkertracks [Act III]\disc 1\13 - Caustic - Mmm Papscraper I Love You (Cervello Elettronico Mix).flac
Extracted successfully
Conclusion: This track looks like MPEG with probability 95%
Tempfile successfully deleted.
14 -===- C:\Users\iReam\Music\Various - 2007 - Endzeit Bunkertracks [Act III]\disc 1\14 - Neikka RPM - Umbrae Sub Noctem (Endzeit Mix).flac
Extracted successfully
Conclusion: This track looks like CDDA with probability 100%
Tempfile successfully deleted.
15 -===- C:\Users\iReam\Music\Various - 2007 - Endzeit Bunkertracks [Act III]\disc 1\15 - Angels On Acid - Misery Loves Company.flac
Extracted successfully
Conclusion: This track looks like CDDA with probability 100%
Tempfile successfully deleted.
16 -===- C:\Users\iReam\Music\Various - 2007 - Endzeit Bunkertracks [Act III]\disc 1\16 - Unter Null - Journey To Descent (V1).flac
Extracted successfully
Conclusion: This track looks like MPEG with probability 95%
Tempfile successfully deleted.
Finished at: четверг, 30. 12. 2010. - 16:08.42 (operation time: 0:08.17)
Код:
-----------------------------------------------------------
Started at: четверг, 30. 12. 2010. - 16:10.53
16 files found
01 -===- C:\Users\iReam\Music\Various - 2007 - Endzeit Bunkertracks [Act III]\disc 2\01 - Faderhead  - Dirtygrrrls  Dirtybois (Modulate Mix).flac
  Extracted successfully
  Conclusion: This track looks like CDDA with probability 100%
  Tempfile successfully deleted.
02 -===- C:\Users\iReam\Music\Various - 2007 - Endzeit Bunkertracks [Act III]\disc 2\02 - Soman  - Mask.flac
  Extracted successfully
  Conclusion: This track looks like CDDA with probability 100%
  Tempfile successfully deleted.
03 -===- C:\Users\iReam\Music\Various - 2007 - Endzeit Bunkertracks [Act III]\disc 2\03 - SAM - Arm Of Justice (Rough Mix).flac
  Extracted successfully
  Conclusion: This track looks like CDDA with probability 99%
  Tempfile successfully deleted.
04 -===- C:\Users\iReam\Music\Various - 2007 - Endzeit Bunkertracks [Act III]\disc 2\04 - Implant  - There Is A Riot Going On.flac
  Extracted successfully
  Conclusion: This track looks like CDDA with probability 100%
  Tempfile successfully deleted.
05 -===- C:\Users\iReam\Music\Various - 2007 - Endzeit Bunkertracks [Act III]\disc 2\05 - Grendel  - Hate This (X-Fusion Mix).flac
  Extracted successfully
  Conclusion: This track looks like CDDA with probability 100%
  Tempfile successfully deleted.
06 -===- C:\Users\iReam\Music\Various - 2007 - Endzeit Bunkertracks [Act III]\disc 2\06 - Suicide Commando  - Hate Me (Leaether Strip Mix).flac
  Extracted successfully
  Conclusion: This track looks like CDDA with probability 100%
  Tempfile successfully deleted.
07 -===- C:\Users\iReam\Music\Various - 2007 - Endzeit Bunkertracks [Act III]\disc 2\07 - FGFC820  - Anthem (Steinkind Mix).flac
  Extracted successfully
  Conclusion: This track looks like CDDA with probability 100%
  Tempfile successfully deleted.
08 -===- C:\Users\iReam\Music\Various - 2007 - Endzeit Bunkertracks [Act III]\disc 2\08 - Dunkelwerk  - Ungethuem (Edit).flac
  Extracted successfully
  Conclusion: This track looks like CDDA with probability 100%
  Tempfile successfully deleted.
09 -===- C:\Users\iReam\Music\Various - 2007 - Endzeit Bunkertracks [Act III]\disc 2\09 - Trimetrick  - Bitch From Hell (DJ1).flac
  Extracted successfully
  Conclusion: This track looks like CDDA with probability 100%
  Tempfile successfully deleted.
10 -===- C:\Users\iReam\Music\Various - 2007 - Endzeit Bunkertracks [Act III]\disc 2\10 - Skoyz  - Distress Signal (C-Drone Defect Mix).flac
  Extracted successfully
  Conclusion: This track looks like CDDA with probability 100%
  Tempfile successfully deleted.
11 -===- C:\Users\iReam\Music\Various - 2007 - Endzeit Bunkertracks [Act III]\disc 2\11 - Painbastard  - Nyctophobia (Straftanz Mix).flac
  Extracted successfully
  Conclusion: This track looks like CDDA with probability 100%
  Tempfile successfully deleted.
12 -===- C:\Users\iReam\Music\Various - 2007 - Endzeit Bunkertracks [Act III]\disc 2\12 - Essence Of Mind  - Different.flac
  Extracted successfully
  Conclusion: This track looks like CDDA with probability 100%
  Tempfile successfully deleted.
13 -===- C:\Users\iReam\Music\Various - 2007 - Endzeit Bunkertracks [Act III]\disc 2\13 - FabrikC  - Exorcism.flac
  Extracted successfully
  Conclusion: This track looks like CDDA with probability 100%
  Tempfile successfully deleted.
14 -===- C:\Users\iReam\Music\Various - 2007 - Endzeit Bunkertracks [Act III]\disc 2\14 - Detune X - Pure Evil (Hardbeat Mix).flac
  Extracted successfully
  Conclusion: This track looks like CDDA with probability 100%
  Tempfile successfully deleted.
15 -===- C:\Users\iReam\Music\Various - 2007 - Endzeit Bunkertracks [Act III]\disc 2\15 - CAT - Enhancer (Cervello Elettronico Mix).flac
  Extracted successfully
  Conclusion: This track looks like CDDA with probability 100%
  Tempfile successfully deleted.
16 -===- C:\Users\iReam\Music\Various - 2007 - Endzeit Bunkertracks [Act III]\disc 2\16 - Banister - Taste Of Flesh.flac
  Extracted successfully
  Conclusion: This track looks like CDDA with probability 100%
  Tempfile successfully deleted.
Finished at: четверг, 30. 12. 2010. - 16:19.40 (operation time: 0:08.47)
Код:
-----------------------------------------------------------
Started at: четверг, 30. 12. 2010. - 16:20.51
17 files found
01 -===- C:\Users\iReam\Music\Various - 2007 - Endzeit Bunkertracks [Act III]\disc 3\01 - Radium226  - Nuclear Violation.flac
  Extracted successfully
  Conclusion: This track looks like CDDA with probability 100%
  Tempfile successfully deleted.
02 -===- C:\Users\iReam\Music\Various - 2007 - Endzeit Bunkertracks [Act III]\disc 3\02 - Prototype - I Hate You.flac
  Extracted successfully
  Conclusion: This track looks like CDDA with probability 100%
  Tempfile successfully deleted.
03 -===- C:\Users\iReam\Music\Various - 2007 - Endzeit Bunkertracks [Act III]\disc 3\03 - Acylum - Rape (Exclusive Edit).flac
  Extracted successfully
  Conclusion: This track looks like CDDA with probability 100%
  Tempfile successfully deleted.
04 -===- C:\Users\iReam\Music\Various - 2007 - Endzeit Bunkertracks [Act III]\disc 3\04 - Endif vs. Replogen  - Last Tribe.flac
  Extracted successfully
  Conclusion: This track looks like CDDA with probability 100%
  Tempfile successfully deleted.
05 -===- C:\Users\iReam\Music\Various - 2007 - Endzeit Bunkertracks [Act III]\disc 3\05 - Complex Mind  - Infiltrat.flac
  Extracted successfully
  Conclusion: This track looks like CDDA with probability 100%
  Tempfile successfully deleted.
06 -===- C:\Users\iReam\Music\Various - 2007 - Endzeit Bunkertracks [Act III]\disc 3\06 - Sebastian Komor  - Das Oontz.flac
  Extracted successfully
  Conclusion: This track looks like MPEG with probability 95%
  Tempfile successfully deleted.
07 -===- C:\Users\iReam\Music\Various - 2007 - Endzeit Bunkertracks [Act III]\disc 3\07 - SHNARPH!  - Virus.flac
  Extracted successfully
  Conclusion: This track looks like CDDA with probability 100%
  Tempfile successfully deleted.
08 -===- C:\Users\iReam\Music\Various - 2007 - Endzeit Bunkertracks [Act III]\disc 3\08 - Experiment Haywire  - Game Called Life.flac
  Extracted successfully
  Conclusion: This track looks like CDDA with probability 100%
  Tempfile successfully deleted.
09 -===- C:\Users\iReam\Music\Various - 2007 - Endzeit Bunkertracks [Act III]\disc 3\09 - Splatter Squall  - Shadows.flac
  Extracted successfully
  Conclusion: This track looks like CDDA with probability 100%
  Tempfile successfully deleted.
10 -===- C:\Users\iReam\Music\Various - 2007 - Endzeit Bunkertracks [Act III]\disc 3\10 - [S.I.T.D.] - Stammheim (Edit).flac
  Extracted successfully
  Conclusion: This track looks like CDDA with probability 100%
  Tempfile successfully deleted.
11 -===- C:\Users\iReam\Music\Various - 2007 - Endzeit Bunkertracks [Act III]\disc 3\11 - Ayria  - The Gun Song (Essence Of Mind Mix).flac
  Extracted successfully
  Conclusion: This track looks like CDDA with probability 99%
  Tempfile successfully deleted.
12 -===- C:\Users\iReam\Music\Various - 2007 - Endzeit Bunkertracks [Act III]\disc 3\12 - X-Fusion - Rotten To The Core (Solitary Experiments Remix).flac
  Extracted successfully
  Conclusion: This track looks like CDDA with probability 100%
  Tempfile successfully deleted.
13 -===- C:\Users\iReam\Music\Various - 2007 - Endzeit Bunkertracks [Act III]\disc 3\13 - 32Crash  - Lone Ranger (C-Drone Defect Mix).flac
  Extracted successfully
  Conclusion: This track looks like CDDA with probability 100%
  Tempfile successfully deleted.
14 -===- C:\Users\iReam\Music\Various - 2007 - Endzeit Bunkertracks [Act III]\disc 3\14 - Monolith  - All Over (Ah Cama-Sotz Mix).flac
  Extracted successfully
  Conclusion: This track looks like CDDA with probability 100%
  Tempfile successfully deleted.
15 -===- C:\Users\iReam\Music\Various - 2007 - Endzeit Bunkertracks [Act III]\disc 3\15 - Cervello Elettronico  - Plastic Face.flac
  Extracted successfully
  Conclusion: This track looks like CDDA with probability 100%
  Tempfile successfully deleted.
16 -===- C:\Users\iReam\Music\Various - 2007 - Endzeit Bunkertracks [Act III]\disc 3\16 - X-RX  - No More Room In Hell.flac
  Extracted successfully
  Conclusion: This track looks like CDDA with probability 100%
  Tempfile successfully deleted.
17 -===- C:\Users\iReam\Music\Various - 2007 - Endzeit Bunkertracks [Act III]\disc 3\17 - Virgins O.R. Pigeons  - Existe (Violated Virgin Remix).flac
  Extracted successfully
  Conclusion: This track looks like CDDA with probability 100%
  Tempfile successfully deleted.
Finished at: четверг, 30. 12. 2010. - 16:29.14 (operation time: 0:08.22)
Код:
-----------------------------------------------------------
Started at: четверг, 30. 12. 2010. - 16:29.52
17 files found
01 -===- C:\Users\iReam\Music\Various - 2007 - Endzeit Bunkertracks [Act III]\disc 4\01 - SkinjoB  - MAN (Mothers Against Noise).flac
  Extracted successfully
  Conclusion: This track looks like CDDA with probability 100%
  Tempfile successfully deleted.
02 -===- C:\Users\iReam\Music\Various - 2007 - Endzeit Bunkertracks [Act III]\disc 4\02 - Schallfaktor  - Menschen.flac
  Extracted successfully
  Conclusion: This track looks like CDDA with probability 100%
  Tempfile successfully deleted.
03 -===- C:\Users\iReam\Music\Various - 2007 - Endzeit Bunkertracks [Act III]\disc 4\03 - Stahlfrequenz - Nothing But A Mashine.flac
  Extracted successfully
  Conclusion: This track looks like CDDA with probability 100%
  Tempfile successfully deleted.
04 -===- C:\Users\iReam\Music\Various - 2007 - Endzeit Bunkertracks [Act III]\disc 4\04 - Alter Der Ruine  - Coppin' It Sweet (Noisuf-X Mix).flac
  Extracted successfully
  Conclusion: This track looks like CDDA with probability 100%
  Tempfile successfully deleted.
05 -===- C:\Users\iReam\Music\Various - 2007 - Endzeit Bunkertracks [Act III]\disc 4\05 - Propulsion - Extreme.flac
  Extracted successfully
  Conclusion: This track looks like CDDA with probability 100%
  Tempfile successfully deleted.
06 -===- C:\Users\iReam\Music\Various - 2007 - Endzeit Bunkertracks [Act III]\disc 4\06 - Diskonnekted - Adrenaline (Endzeit Edit).flac
  Extracted successfully
  Conclusion: This track looks like CDDA with probability 100%
  Tempfile successfully deleted.
07 -===- C:\Users\iReam\Music\Various - 2007 - Endzeit Bunkertracks [Act III]\disc 4\07 - Dawn Of Ashes  - Still Born Defect (Nemesis Mix).flac
  Extracted successfully
  Conclusion: This track looks like CDDA with probability 100%
  Tempfile successfully deleted.
08 -===- C:\Users\iReam\Music\Various - 2007 - Endzeit Bunkertracks [Act III]\disc 4\08 - Vision Anomaly Feat. Stahlnebel  - Anxiety Neuroses.flac
  Extracted successfully
  Conclusion: This track looks like CDDA with probability 100%
  Tempfile successfully deleted.
09 -===- C:\Users\iReam\Music\Various - 2007 - Endzeit Bunkertracks [Act III]\disc 4\09 - De_ Tot_ Cor - Strawberry Panic.flac
  Extracted successfully
  Conclusion: This track looks like CDDA with probability 100%
  Tempfile successfully deleted.
10 -===- C:\Users\iReam\Music\Various - 2007 - Endzeit Bunkertracks [Act III]\disc 4\10 - Terrorfakt  - Skullfucker (Synnack Mix).flac
  Extracted successfully
  Conclusion: This track looks like CDDA with probability 100%
  Tempfile successfully deleted.
11 -===- C:\Users\iReam\Music\Various - 2007 - Endzeit Bunkertracks [Act III]\disc 4\11 - Individual Totem  - WWW.flac
  Extracted successfully
  Conclusion: This track looks like CDDA with probability 100%
  Tempfile successfully deleted.
12 -===- C:\Users\iReam\Music\Various - 2007 - Endzeit Bunkertracks [Act III]\disc 4\12 - Inure  - The Offering.flac
  Extracted successfully
  Conclusion: This track looks like CDDA with probability 100%
  Tempfile successfully deleted.
13 -===- C:\Users\iReam\Music\Various - 2007 - Endzeit Bunkertracks [Act III]\disc 4\13 - Chaoskult  - Numb.flac
  Extracted successfully
  Conclusion: This track looks like CDDA with probability 100%
  Tempfile successfully deleted.
14 -===- C:\Users\iReam\Music\Various - 2007 - Endzeit Bunkertracks [Act III]\disc 4\14 - C-Drone Defect - Morituri Te Salutant.flac
  Extracted successfully
  Conclusion: This track looks like CDDA with probability 100%
  Tempfile successfully deleted.
15 -===- C:\Users\iReam\Music\Various - 2007 - Endzeit Bunkertracks [Act III]\disc 4\15 - Noisex  - Das Ist Elektro.flac
  Extracted successfully
  Conclusion: This track looks like CDDA with probability 99%
  Tempfile successfully deleted.
16 -===- C:\Users\iReam\Music\Various - 2007 - Endzeit Bunkertracks [Act III]\disc 4\16 - Psy'Aviah  - Mine (Endzeit Mix).flac
  Extracted successfully
  Conclusion: This track looks like CDDA with probability 99%
  Tempfile successfully deleted.
17 -===- C:\Users\iReam\Music\Various - 2007 - Endzeit Bunkertracks [Act III]\disc 4\17 - Isis Signum Feat. Sara Noxx  - Destroy The Wall (Supreme Court Remix).flac
  Extracted successfully
  Conclusion: This track looks like CDDA with probability 100%
  Tempfile successfully deleted.
Finished at: четверг, 30. 12. 2010. - 16:38.22 (operation time: 0:08.30)
Правила, инструкции, FAQ!!!
Торрент  Добавлен [26 июн 2020, 17:07] Скачать торрент Магнет ссылка
Скачать торрент
[ Размер 18.42 КБ / Просмотров 4 ]

Статус
Проверен 
 
Размер  2.26 ГБ
Приватный: Нет (DHT включён)
.torrent скачан  0
 


     Отправить личное сообщение
   
Страница 1 из 1
Показать сообщения за:  Поле сортировки  
Начать новую тему Ответить на тему


Сейчас этот форум просматривают: нет зарегистрированных пользователей и гости: 0


Вы не можете начинать темы
Вы не можете отвечать на сообщения
Вы не можете редактировать свои сообщения
Вы не можете удалять свои сообщения
Вы не можете добавлять вложения

Перейти:  
cron