Начать новую тему Ответить на тему
Статистика раздачи
Размер: 2.11 ГБ | Добавлен: 26 июн 2020, 17:07 | Скачали: 0
Сидеров: 0  [0 байт/сек]    Личеров: 0  [0 байт/сек]
Пред. тема | След. тема 

Автор
Сообщение

СообщениеДобавлено: 26 июн 2020, 17:07 

Ответить с цитатой 

Various Artists - Endzeit Bunkertracks [Act II]
Жанр: EBM, Industrial, Electro
Страна-производитель диска: Belgium
Год издания диска: 2006
Издатель (лейбл): Alfa Matrix
Номер по каталогу: AM-1066FCD
Аудио кодек: FLAC (*.flac)
Тип рипа: tracks+.cue
Битрейт аудио: lossless
Продолжительность: 4:54:47
Источник (релизер): what.cd(absinthine)
Наличие сканов в содержимом раздачи: нет
Треклист:
CD 1 - Evil Session:
1. Retrosic - The storm (6:00)
2. X-Fusion - Witness of your decease (4:14)
3. Glis - Dead set [7 am] (4:11)
4. Soman - Ruler (4:38)
5. Monolith - 50360329 (3:46)
6. T.H.Industry - Die Wut (4:53)
7. I:Scintilla - Havestar (CombiChrist mix) (4:40)
8. Noisuf-X - Jezebel (bt-mix) (4:12)
9. Endif - Sleepercell (4:15)
10. Stray - Intoxicate (5:30)
11. Kobold - Rubicon (4:19)
12. Neikka RPM feat Implant - Find a way (3:32)
13. die Sektor - Mother hunger (6:16)
14. Diskonnekted feat Johan Van Roy - Religion (MILDREDA mix) (4:20)
15. Dioxyde - Words of judas (Supreme Court mix) (4:25)
16. Winterstahl - Self deception (hard version) (4:21)
CD 2 - Torture Session:
1. Negri Bodies - I.T.D. (3:42)
2. Suicide Commando - Bleed For Us All (Unter Null Mix) (4:07)
3. Heimataerde - Gib Mir (3:27)
4. Inure - Subversive (Corrupted Re-edit) (4:53)
5. Necro Facility - Downstairs (4:29)
6. Mentallo & the Fixer - Driving Off A Cliff With A Cult (An Old Friend Nearly Killed Me Mix) (5:23)
7. Index AI - Butterfly Houses (Edit 2) (4:18)
8. FIX8:SED8 - Monolith (5:39)
9. Alien Produkt - Acceso denegado (Vigilante mix) (3:44)
10. Klutae - We are sinners (made in Denmark mix) (5:23)
11. Distorted Memory - God's wrath (6:02)
12. Dunkelwerk - Dresden (reduced) (4:08)
13. Modulate - Das Bunker (3:45)
14. Shnarph! - Ausgebrannt (3:36)
15. Tactical Sekt - Beslan (4:52)
16. Retractor - Possessions (Dawn of Ashes mix) (6:02)
CD 3 - Damage Session:
1. Necrotek - Spectre (6:18)
2. Skalpell - Sanatorium (4:22)
3. C/A/T - Smashed (4:38)
4. S.I.N.A. - Bewegungsablauf (Floor 4 Version) (4:20)
5. Isis Signum feat Neikka RPM - Technique (Club Mix) (3:52)
6. Zombie Girl - Creepy Crawler (3:54)
7. Die Form - Bite of God 2006 (3:46)
8. Plastic Noise Experience - I Feel Love (7') (5:01)
9. Headscan - Terra Incognita (Sojourn) (4:33)
10. :Wumpscut: - Jesus Antichristus (Cerebral Apoplexy Mix) (4:13)
11. Life Cried - As We Decay (4:59)
12. E.S.R. - Nothing Stays (5:04)
13. FGFC820 - Pray (5:26)
14. Thirteenth Exile - Diseasespreader (Filthy Bitch Mix) (3:43)
15. Leaether Strip - Slam (The Happy Dance Version) (5:07)
16. Orange Sector - Tanzbefehl (Urban Remix by Heimataerde) (4:33)
CD 4 - Death Session:
1. Neue Weltumfassende Resistance - Drache und Baum (3:55)
2. Implant feat. Unter Null - You Push Me (4:55)
3. Caustic - Digital Mangina (4:40)
4. Reaper - Angst (4:23)
5. Carnivora - Motivation for the Unseen Things (4:10)
6. Revolution State - Deny (4:37)
7. Tamtrum - La Menthe Veneneuse (5:20)
8. Iambia - Chaosmancer (6,66 Mix By Noid Of Siva Six) (6:23)
9. Terror Punk Syndicate - Dysmorphia (4:40)
10. Inertia - Slow Motion (Aslan Faction Mix) (5:33)
11. Sang.Rael - Prophetic (4:06)
12. Trial - Fur Zwei (Bunker Mix) (3:21)
13. Morphine Shot - My Legions (3:39)
14. Unter null - Sick Fuck (aesthetic perfection mix) (4:30)
15. Lujhboia - Looser's Letter (Ammonium Mix) (4:30)
16. Dawn Of Ashes - The Suffering (4:43)
Discogs.com
Код:
Exact Audio Copy V0.99 prebeta 4 from 23. January 2008
EAC extraction logfile from 14. May 2009, 7:29
Various / Endzeit Bunkertracks [act II] disc 1
Used drive  :   JLMS  DVD-ROM LTD-166S   Adapter: 0  ID: 1
Read mode               : Secure
Utilize accurate stream : Yes
Defeat audio cache      : Yes
Make use of C2 pointers : No
Read offset correction                      : 12
Overread into Lead-In and Lead-Out          : No
Fill up missing offset samples with silence : Yes
Delete leading and trailing silent blocks   : No
Null samples used in CRC calculations       : Yes
Used interface                              : Native Win32 interface for Win NT & 2000
Gap handling                                : Appended to previous track
Used output format              : User Defined Encoder
Selected bitrate                : 192 kBit/s
Quality                         : High
Add ID3 tag                     : No
Command line compressor         : C:\Program Files\Exact Audio Copy\Flac\flac.exe
Additional command line options : -V -8 -T "artist=%a" -T "title=%t" -T "album=%g" -T "date=%y" -T "tracknumber=%n" -T "genre=%m" %s
TOC of the extracted CD
     Track |   Start  |  Length  | Start sector | End sector
    ---------------------------------------------------------
        1  |  0:00.00 |  6:00.69 |         0    |    27068
        2  |  6:00.69 |  4:14.05 |     27069    |    46123
        3  | 10:14.74 |  4:11.02 |     46124    |    64950
        4  | 14:26.01 |  4:38.31 |     64951    |    85831
        5  | 19:04.32 |  3:46.50 |     85832    |   102831
        6  | 22:51.07 |  4:53.49 |    102832    |   124855
        7  | 27:44.56 |  4:40.57 |    124856    |   145912
        8  | 32:25.38 |  4:12.27 |    145913    |   164839
        9  | 36:37.65 |  4:15.50 |    164840    |   184014
       10  | 40:53.40 |  5:30.19 |    184015    |   208783
       11  | 46:23.59 |  4:19.36 |    208784    |   228244
       12  | 50:43.20 |  3:32.65 |    228245    |   244209
       13  | 54:16.10 |  6:16.02 |    244210    |   272411
       14  | 60:32.12 |  4:20.56 |    272412    |   291967
       15  | 64:52.68 |  4:25.45 |    291968    |   311887
       16  | 69:18.38 |  4:21.09 |    311888    |   331471
Track  1
     Filename G:\Mine\my documents\My Music\EAC rips\flac\Various - 2006 - Endzeit Bunkertracks [act II] disc 1\Various - 2006 - Endzeit Bunkertracks [act II] disc 1 - 01 - The storm.wav
     Pre-gap length  0:00:02.00
     Peak level 100.0 %
     Track quality 100.0 %
     Test CRC F72EAF6D
     Copy CRC F72EAF6D
     Accurately ripped (confidence 2)  [452D9739]
     Copy OK
Track  2
     Filename G:\Mine\my documents\My Music\EAC rips\flac\Various - 2006 - Endzeit Bunkertracks [act II] disc 1\Various - 2006 - Endzeit Bunkertracks [act II] disc 1 - 02 - Witness of your decease.wav
     Pre-gap length  0:00:01.00
     Peak level 100.0 %
     Track quality 100.0 %
     Test CRC 575B8D58
     Copy CRC 575B8D58
     Accurately ripped (confidence 2)  [B282C379]
     Copy OK
Track  3
     Filename G:\Mine\my documents\My Music\EAC rips\flac\Various - 2006 - Endzeit Bunkertracks [act II] disc 1\Various - 2006 - Endzeit Bunkertracks [act II] disc 1 - 03 - Dead set [7 am].wav
     Pre-gap length  0:00:01.00
     Peak level 100.0 %
     Track quality 99.9 %
     Test CRC 5EAE28B0
     Copy CRC 5EAE28B0
     Accurately ripped (confidence 2)  [8E36AB5C]
     Copy OK
Track  4
     Filename G:\Mine\my documents\My Music\EAC rips\flac\Various - 2006 - Endzeit Bunkertracks [act II] disc 1\Various - 2006 - Endzeit Bunkertracks [act II] disc 1 - 04 - Ruler.wav
     Pre-gap length  0:00:01.00
     Peak level 100.0 %
     Track quality 100.0 %
     Test CRC 33815B53
     Copy CRC 33815B53
     Accurately ripped (confidence 2)  [D9A68D3D]
     Copy OK
Track  5
     Filename G:\Mine\my documents\My Music\EAC rips\flac\Various - 2006 - Endzeit Bunkertracks [act II] disc 1\Various - 2006 - Endzeit Bunkertracks [act II] disc 1 - 05 - 50360329.wav
     Pre-gap length  0:00:01.00
     Peak level 100.0 %
     Track quality 100.0 %
     Test CRC 152AD6EC
     Copy CRC 152AD6EC
     Accurately ripped (confidence 2)  [D047B1F5]
     Copy OK
Track  6
     Filename G:\Mine\my documents\My Music\EAC rips\flac\Various - 2006 - Endzeit Bunkertracks [act II] disc 1\Various - 2006 - Endzeit Bunkertracks [act II] disc 1 - 06 - Die Wut.wav
     Pre-gap length  0:00:01.00
     Peak level 100.0 %
     Track quality 100.0 %
     Test CRC A92A758A
     Copy CRC A92A758A
     Accurately ripped (confidence 2)  [5BE3A1A6]
     Copy OK
Track  7
     Filename G:\Mine\my documents\My Music\EAC rips\flac\Various - 2006 - Endzeit Bunkertracks [act II] disc 1\Various - 2006 - Endzeit Bunkertracks [act II] disc 1 - 07 - Havestar (CombiChrist mix).wav
     Pre-gap length  0:00:01.00
     Peak level 100.0 %
     Track quality 100.0 %
     Test CRC EE832CDA
     Copy CRC EE832CDA
     Accurately ripped (confidence 2)  [2B05F739]
     Copy OK
Track  8
     Filename G:\Mine\my documents\My Music\EAC rips\flac\Various - 2006 - Endzeit Bunkertracks [act II] disc 1\Various - 2006 - Endzeit Bunkertracks [act II] disc 1 - 08 - Jezebel (bt-mix).wav
     Pre-gap length  0:00:01.00
     Peak level 100.0 %
     Track quality 99.9 %
     Test CRC 32B60DE7
     Copy CRC 32B60DE7
     Accurately ripped (confidence 2)  [58032701]
     Copy OK
Track  9
     Filename G:\Mine\my documents\My Music\EAC rips\flac\Various - 2006 - Endzeit Bunkertracks [act II] disc 1\Various - 2006 - Endzeit Bunkertracks [act II] disc 1 - 09 - Sleepercell.wav
     Pre-gap length  0:00:01.00
     Peak level 100.0 %
     Track quality 99.9 %
     Test CRC D5F3261D
     Copy CRC D5F3261D
     Accurately ripped (confidence 2)  [5651CB57]
     Copy OK
Track 10
     Filename G:\Mine\my documents\My Music\EAC rips\flac\Various - 2006 - Endzeit Bunkertracks [act II] disc 1\Various - 2006 - Endzeit Bunkertracks [act II] disc 1 - 10 - Intoxicate.wav
     Pre-gap length  0:00:01.00
     Peak level 100.0 %
     Track quality 100.0 %
     Test CRC 03E2CD47
     Copy CRC 03E2CD47
     Accurately ripped (confidence 2)  [464369F6]
     Copy OK
Track 11
     Filename G:\Mine\my documents\My Music\EAC rips\flac\Various - 2006 - Endzeit Bunkertracks [act II] disc 1\Various - 2006 - Endzeit Bunkertracks [act II] disc 1 - 11 - Rubicon.wav
     Pre-gap length  0:00:01.00
     Peak level 100.0 %
     Track quality 100.0 %
     Test CRC 64C58BC4
     Copy CRC 64C58BC4
     Accurately ripped (confidence 2)  [1E8E970D]
     Copy OK
Track 12
     Filename G:\Mine\my documents\My Music\EAC rips\flac\Various - 2006 - Endzeit Bunkertracks [act II] disc 1\Various - 2006 - Endzeit Bunkertracks [act II] disc 1 - 12 - Find a way.wav
     Pre-gap length  0:00:01.00
     Peak level 100.0 %
     Track quality 99.9 %
     Test CRC 2CBD6E7B
     Copy CRC 2CBD6E7B
     Accurately ripped (confidence 2)  [E4F7EA60]
     Copy OK
Track 13
     Filename G:\Mine\my documents\My Music\EAC rips\flac\Various - 2006 - Endzeit Bunkertracks [act II] disc 1\Various - 2006 - Endzeit Bunkertracks [act II] disc 1 - 13 - Mother hunger.wav
     Pre-gap length  0:00:01.00
     Peak level 100.0 %
     Track quality 100.0 %
     Test CRC FCC1F82D
     Copy CRC FCC1F82D
     Accurately ripped (confidence 2)  [264D5121]
     Copy OK
Track 14
     Filename G:\Mine\my documents\My Music\EAC rips\flac\Various - 2006 - Endzeit Bunkertracks [act II] disc 1\Various - 2006 - Endzeit Bunkertracks [act II] disc 1 - 14 - Religion (MILDREDA mix).wav
     Pre-gap length  0:00:01.00
     Peak level 100.0 %
     Track quality 100.0 %
     Test CRC 0D4CE45E
     Copy CRC 0D4CE45E
     Accurately ripped (confidence 2)  [E2118CD7]
     Copy OK
Track 15
     Filename G:\Mine\my documents\My Music\EAC rips\flac\Various - 2006 - Endzeit Bunkertracks [act II] disc 1\Various - 2006 - Endzeit Bunkertracks [act II] disc 1 - 15 - Words of judas (Supreme Court mix).wav
     Pre-gap length  0:00:01.00
     Peak level 100.0 %
     Track quality 100.0 %
     Test CRC 5A55B538
     Copy CRC 5A55B538
     Accurately ripped (confidence 2)  [6CDA7D34]
     Copy OK
Track 16
     Filename G:\Mine\my documents\My Music\EAC rips\flac\Various - 2006 - Endzeit Bunkertracks [act II] disc 1\Various - 2006 - Endzeit Bunkertracks [act II] disc 1 - 16 - Self deception (hard version).wav
     Pre-gap length  0:00:01.00
     Peak level 100.0 %
     Track quality 100.0 %
     Test CRC 9A9E876E
     Copy CRC 9A9E876E
     Accurately ripped (confidence 2)  [822DCD03]
     Copy OK
All tracks accurately ripped
No errors occurred
End of status report
Код:
Exact Audio Copy V0.99 prebeta 4 from 23. January 2008
EAC extraction logfile from 14. May 2009, 9:18
Various / Endzeit Bunkertracks [act II] disc 2
Used drive  :   JLMS  DVD-ROM LTD-166S   Adapter: 0  ID: 1
Read mode               : Secure
Utilize accurate stream : Yes
Defeat audio cache      : Yes
Make use of C2 pointers : No
Read offset correction                      : 12
Overread into Lead-In and Lead-Out          : No
Fill up missing offset samples with silence : Yes
Delete leading and trailing silent blocks   : No
Null samples used in CRC calculations       : Yes
Used interface                              : Native Win32 interface for Win NT & 2000
Gap handling                                : Appended to previous track
Used output format              : User Defined Encoder
Selected bitrate                : 192 kBit/s
Quality                         : High
Add ID3 tag                     : No
Command line compressor         : C:\Program Files\Exact Audio Copy\Flac\flac.exe
Additional command line options : -V -8 -T "artist=%a" -T "title=%t" -T "album=%g" -T "date=%y" -T "tracknumber=%n" -T "genre=%m" %s
TOC of the extracted CD
     Track |   Start  |  Length  | Start sector | End sector
    ---------------------------------------------------------
        1  |  0:00.00 |  3:42.74 |         0    |    16723
        2  |  3:42.74 |  4:07.03 |     16724    |    35251
        3  |  7:50.02 |  3:27.35 |     35252    |    50811
        4  | 11:17.37 |  4:53.67 |     50812    |    72853
        5  | 16:11.29 |  4:29.11 |     72854    |    93039
        6  | 20:40.40 |  5:23.69 |     93040    |   117333
        7  | 26:04.34 |  4:18.21 |    117334    |   136704
        8  | 30:22.55 |  5:39.10 |    136705    |   162139
        9  | 36:01.65 |  3:44.63 |    162140    |   179002
       10  | 39:46.53 |  5:23.44 |    179003    |   203271
       11  | 45:10.22 |  6:02.05 |    203272    |   230426
       12  | 51:12.27 |  4:08.33 |    230427    |   249059
       13  | 55:20.60 |  3:45.14 |    249060    |   265948
       14  | 59:05.74 |  3:36.01 |    265949    |   282149
       15  | 62:42.00 |  4:52.12 |    282150    |   304061
       16  | 67:34.12 |  6:02.56 |    304062    |   331267
Track  1
     Filename G:\Mine\my documents\My Music\EAC rips\flac\Various - 2006 - Endzeit Bunkertracks [act II] disc 2\Various - 2006 - Endzeit Bunkertracks [act II] disc 2 - 01 - i.t.d..wav
     Pre-gap length  0:00:02.00
     Peak level 100.0 %
     Track quality 100.0 %
     Test CRC 71DB8ECA
     Copy CRC 71DB8ECA
     Accurately ripped (confidence 2)  [5519DA99]
     Copy OK
Track  2
     Filename G:\Mine\my documents\My Music\EAC rips\flac\Various - 2006 - Endzeit Bunkertracks [act II] disc 2\Various - 2006 - Endzeit Bunkertracks [act II] disc 2 - 02 - Bleed for us all (Unter Null mix).wav
     Pre-gap length  0:00:02.00
     Peak level 100.0 %
     Track quality 99.9 %
     Test CRC 65FAA03E
     Copy CRC 65FAA03E
     Accurately ripped (confidence 2)  [4FA3D56C]
     Copy OK
Track  3
     Filename G:\Mine\my documents\My Music\EAC rips\flac\Various - 2006 - Endzeit Bunkertracks [act II] disc 2\Various - 2006 - Endzeit Bunkertracks [act II] disc 2 - 03 - Gib mir.wav
     Pre-gap length  0:00:02.00
     Peak level 100.0 %
     Track quality 100.0 %
     Test CRC B693B105
     Copy CRC B693B105
     Accurately ripped (confidence 2)  [EC685EF4]
     Copy OK
Track  4
     Filename G:\Mine\my documents\My Music\EAC rips\flac\Various - 2006 - Endzeit Bunkertracks [act II] disc 2\Various - 2006 - Endzeit Bunkertracks [act II] disc 2 - 04 - Subversive (corrupted re-edit).wav
     Pre-gap length  0:00:02.00
     Peak level 100.0 %
     Track quality 100.0 %
     Test CRC 95F8FDFC
     Copy CRC 95F8FDFC
     Accurately ripped (confidence 2)  [0C0B9D6C]
     Copy OK
Track  5
     Filename G:\Mine\my documents\My Music\EAC rips\flac\Various - 2006 - Endzeit Bunkertracks [act II] disc 2\Various - 2006 - Endzeit Bunkertracks [act II] disc 2 - 05 - Downstairs.wav
     Pre-gap length  0:00:02.00
     Peak level 100.0 %
     Track quality 100.0 %
     Test CRC 860B1D43
     Copy CRC 860B1D43
     Accurately ripped (confidence 2)  [A2E39A8E]
     Copy OK
Track  6
     Filename G:\Mine\my documents\My Music\EAC rips\flac\Various - 2006 - Endzeit Bunkertracks [act II] disc 2\Various - 2006 - Endzeit Bunkertracks [act II] disc 2 - 06 - Driving off a cliff with a cult (an old friend nearly killed me mix).wav
     Pre-gap length  0:00:02.00
     Peak level 100.0 %
     Track quality 100.0 %
     Test CRC FF6C6B36
     Copy CRC FF6C6B36
     Accurately ripped (confidence 2)  [77F24579]
     Copy OK
Track  7
     Filename G:\Mine\my documents\My Music\EAC rips\flac\Various - 2006 - Endzeit Bunkertracks [act II] disc 2\Various - 2006 - Endzeit Bunkertracks [act II] disc 2 - 07 - Butterfly houses (edit 2).wav
     Pre-gap length  0:00:02.00
     Peak level 100.0 %
     Track quality 100.0 %
     Test CRC 34E7182D
     Copy CRC 34E7182D
     Accurately ripped (confidence 2)  [5162216F]
     Copy OK
Track  8
     Filename G:\Mine\my documents\My Music\EAC rips\flac\Various - 2006 - Endzeit Bunkertracks [act II] disc 2\Various - 2006 - Endzeit Bunkertracks [act II] disc 2 - 08 - Monolith.wav
     Pre-gap length  0:00:02.00
     Peak level 100.0 %
     Track quality 100.0 %
     Test CRC 5E249077
     Copy CRC 5E249077
     Accurately ripped (confidence 2)  [CDBAD1A7]
     Copy OK
Track  9
     Filename G:\Mine\my documents\My Music\EAC rips\flac\Various - 2006 - Endzeit Bunkertracks [act II] disc 2\Various - 2006 - Endzeit Bunkertracks [act II] disc 2 - 09 - Acceso denegado (Vigilante mix).wav
     Pre-gap length  0:00:02.00
     Peak level 100.0 %
     Track quality 100.0 %
     Test CRC DF6505F9
     Copy CRC DF6505F9
     Accurately ripped (confidence 2)  [4BC4DC6C]
     Copy OK
Track 10
     Filename G:\Mine\my documents\My Music\EAC rips\flac\Various - 2006 - Endzeit Bunkertracks [act II] disc 2\Various - 2006 - Endzeit Bunkertracks [act II] disc 2 - 10 - We are sinners (made in Denmark mix).wav
     Pre-gap length  0:00:02.00
     Peak level 100.0 %
     Track quality 100.0 %
     Test CRC FA567A00
     Copy CRC FA567A00
     Accurately ripped (confidence 2)  [3FEA5D45]
     Copy OK
Track 11
     Filename G:\Mine\my documents\My Music\EAC rips\flac\Various - 2006 - Endzeit Bunkertracks [act II] disc 2\Various - 2006 - Endzeit Bunkertracks [act II] disc 2 - 11 - God's wrath.wav
     Pre-gap length  0:00:02.00
     Peak level 100.0 %
     Track quality 100.0 %
     Test CRC D832FC47
     Copy CRC D832FC47
     Accurately ripped (confidence 2)  [CB247C4C]
     Copy OK
Track 12
     Filename G:\Mine\my documents\My Music\EAC rips\flac\Various - 2006 - Endzeit Bunkertracks [act II] disc 2\Various - 2006 - Endzeit Bunkertracks [act II] disc 2 - 12 - Dresden (reduced).wav
     Pre-gap length  0:00:02.00
     Peak level 100.0 %
     Track quality 100.0 %
     Test CRC 2CBB29D4
     Copy CRC 2CBB29D4
     Accurately ripped (confidence 2)  [8D4F5EC5]
     Copy OK
Track 13
     Filename G:\Mine\my documents\My Music\EAC rips\flac\Various - 2006 - Endzeit Bunkertracks [act II] disc 2\Various - 2006 - Endzeit Bunkertracks [act II] disc 2 - 13 - Das Bunker.wav
     Pre-gap length  0:00:02.00
     Peak level 100.0 %
     Track quality 100.0 %
     Test CRC 777D90E2
     Copy CRC 777D90E2
     Accurately ripped (confidence 2)  [260FB3F7]
     Copy OK
Track 14
     Filename G:\Mine\my documents\My Music\EAC rips\flac\Various - 2006 - Endzeit Bunkertracks [act II] disc 2\Various - 2006 - Endzeit Bunkertracks [act II] disc 2 - 14 - Ausgebrannt.wav
     Pre-gap length  0:00:02.00
     Peak level 100.0 %
     Track quality 100.0 %
     Test CRC BC44D023
     Copy CRC BC44D023
     Accurately ripped (confidence 2)  [EB2404D8]
     Copy OK
Track 15
     Filename G:\Mine\my documents\My Music\EAC rips\flac\Various - 2006 - Endzeit Bunkertracks [act II] disc 2\Various - 2006 - Endzeit Bunkertracks [act II] disc 2 - 15 - Beslan.wav
     Pre-gap length  0:00:02.00
     Peak level 99.0 %
     Track quality 100.0 %
     Test CRC 6EE52282
     Copy CRC 6EE52282
     Accurately ripped (confidence 2)  [151412FA]
     Copy OK
Track 16
     Filename G:\Mine\my documents\My Music\EAC rips\flac\Various - 2006 - Endzeit Bunkertracks [act II] disc 2\Various - 2006 - Endzeit Bunkertracks [act II] disc 2 - 16 - Possessions (Dawn of Ashes mix).wav
     Pre-gap length  0:00:02.00
     Peak level 100.0 %
     Track quality 100.0 %
     Test CRC 70853F7E
     Copy CRC 70853F7E
     Accurately ripped (confidence 2)  [F3FDBDC6]
     Copy OK
All tracks accurately ripped
No errors occurred
End of status report
Код:
Exact Audio Copy V0.99 prebeta 4 from 23. January 2008
EAC extraction logfile from 14. May 2009, 8:22
Various / Endzeit Bunkertracks [act II] disc 3
Used drive  :   JLMS  DVD-ROM LTD-166S   Adapter: 0  ID: 1
Read mode               : Secure
Utilize accurate stream : Yes
Defeat audio cache      : Yes
Make use of C2 pointers : No
Read offset correction                      : 12
Overread into Lead-In and Lead-Out          : No
Fill up missing offset samples with silence : Yes
Delete leading and trailing silent blocks   : No
Null samples used in CRC calculations       : Yes
Used interface                              : Native Win32 interface for Win NT & 2000
Gap handling                                : Appended to previous track
Used output format              : User Defined Encoder
Selected bitrate                : 192 kBit/s
Quality                         : High
Add ID3 tag                     : No
Command line compressor         : C:\Program Files\Exact Audio Copy\Flac\flac.exe
Additional command line options : -V -8 -T "artist=%a" -T "title=%t" -T "album=%g" -T "date=%y" -T "tracknumber=%n" -T "genre=%m" %s
TOC of the extracted CD
     Track |   Start  |  Length  | Start sector | End sector
    ---------------------------------------------------------
        1  |  0:00.00 |  6:18.74 |         0    |    28423
        2  |  6:18.74 |  4:22.43 |     28424    |    48116
        3  | 10:41.42 |  4:38.01 |     48117    |    68967
        4  | 15:19.43 |  4:20.71 |     68968    |    88538
        5  | 19:40.39 |  3:52.24 |     88539    |   105962
        6  | 23:32.63 |  3:54.29 |    105963    |   123541
        7  | 27:27.17 |  3:46.43 |    123542    |   140534
        8  | 31:13.60 |  5:01.38 |    140535    |   163147
        9  | 36:15.23 |  4:33.09 |    163148    |   183631
       10  | 40:48.32 |  4:13.14 |    183632    |   202620
       11  | 45:01.46 |  4:59.44 |    202621    |   225089
       12  | 50:01.15 |  5:04.74 |    225090    |   247963
       13  | 55:06.14 |  5:26.00 |    247964    |   272413
       14  | 60:32.14 |  3:43.56 |    272414    |   289194
       15  | 64:15.70 |  5:07.36 |    289195    |   312255
       16  | 69:23.31 |  4:33.21 |    312256    |   332751
Track  1
     Filename G:\Mine\my documents\My Music\EAC rips\flac\Various - 2006 - Endzeit Bunkertracks [act II] disc 3\Various - 2006 - Endzeit Bunkertracks [act II] disc 3 - 01 - Spectre.wav
     Pre-gap length  0:00:02.00
     Peak level 100.0 %
     Track quality 100.0 %
     Test CRC 4069A60E
     Copy CRC 4069A60E
     Accurately ripped (confidence 2)  [6C241D4D]
     Copy OK
Track  2
     Filename G:\Mine\my documents\My Music\EAC rips\flac\Various - 2006 - Endzeit Bunkertracks [act II] disc 3\Various - 2006 - Endzeit Bunkertracks [act II] disc 3 - 02 - Sanatorium.wav
     Pre-gap length  0:00:01.00
     Peak level 100.0 %
     Track quality 100.0 %
     Test CRC 7D18D33C
     Copy CRC 7D18D33C
     Accurately ripped (confidence 2)  [8D5EE268]
     Copy OK
Track  3
     Filename G:\Mine\my documents\My Music\EAC rips\flac\Various - 2006 - Endzeit Bunkertracks [act II] disc 3\Various - 2006 - Endzeit Bunkertracks [act II] disc 3 - 03 - Smashed.wav
     Pre-gap length  0:00:01.00
     Peak level 100.0 %
     Track quality 100.0 %
     Test CRC 4A1C55D3
     Copy CRC 4A1C55D3
     Accurately ripped (confidence 2)  [BE5D65B4]
     Copy OK
Track  4
     Filename G:\Mine\my documents\My Music\EAC rips\flac\Various - 2006 - Endzeit Bunkertracks [act II] disc 3\Various - 2006 - Endzeit Bunkertracks [act II] disc 3 - 04 - Bewegungsablauf (Floor 4 Version).wav
     Pre-gap length  0:00:01.00
     Peak level 100.0 %
     Track quality 100.0 %
     Test CRC 3E5D24A9
     Copy CRC 3E5D24A9
     Accurately ripped (confidence 2)  [A8C62B32]
     Copy OK
Track  5
     Filename G:\Mine\my documents\My Music\EAC rips\flac\Various - 2006 - Endzeit Bunkertracks [act II] disc 3\Various - 2006 - Endzeit Bunkertracks [act II] disc 3 - 05 - Technique (Club Mix).wav
     Pre-gap length  0:00:01.00
     Peak level 100.0 %
     Track quality 100.0 %
     Test CRC 1632EDAF
     Copy CRC 1632EDAF
     Accurately ripped (confidence 2)  [E638DC45]
     Copy OK
Track  6
     Filename G:\Mine\my documents\My Music\EAC rips\flac\Various - 2006 - Endzeit Bunkertracks [act II] disc 3\Various - 2006 - Endzeit Bunkertracks [act II] disc 3 - 06 - Creepy Crawler.wav
     Pre-gap length  0:00:01.00
     Peak level 100.0 %
     Track quality 100.0 %
     Test CRC 9660F010
     Copy CRC 9660F010
     Accurately ripped (confidence 2)  [F11AECD3]
     Copy OK
Track  7
     Filename G:\Mine\my documents\My Music\EAC rips\flac\Various - 2006 - Endzeit Bunkertracks [act II] disc 3\Various - 2006 - Endzeit Bunkertracks [act II] disc 3 - 07 - Bite of God 2006.wav
     Pre-gap length  0:00:01.00
     Peak level 100.0 %
     Track quality 100.0 %
     Test CRC 12B15A70
     Copy CRC 12B15A70
     Accurately ripped (confidence 2)  [1325AD24]
     Copy OK
Track  8
     Filename G:\Mine\my documents\My Music\EAC rips\flac\Various - 2006 - Endzeit Bunkertracks [act II] disc 3\Various - 2006 - Endzeit Bunkertracks [act II] disc 3 - 08 - I Feel Love (7').wav
     Pre-gap length  0:00:01.00
     Peak level 100.0 %
     Track quality 99.9 %
     Test CRC 0F4221C8
     Copy CRC 0F4221C8
     Accurately ripped (confidence 2)  [07B3D2A6]
     Copy OK
Track  9
     Filename G:\Mine\my documents\My Music\EAC rips\flac\Various - 2006 - Endzeit Bunkertracks [act II] disc 3\Various - 2006 - Endzeit Bunkertracks [act II] disc 3 - 09 - Terra Incognita (Sojourn).wav
     Pre-gap length  0:00:01.00
     Peak level 100.0 %
     Track quality 100.0 %
     Test CRC 923E86A6
     Copy CRC 923E86A6
     Accurately ripped (confidence 2)  [5953A0FC]
     Copy OK
Track 10
     Filename G:\Mine\my documents\My Music\EAC rips\flac\Various - 2006 - Endzeit Bunkertracks [act II] disc 3\Various - 2006 - Endzeit Bunkertracks [act II] disc 3 - 10 - Jesus Antichristus (Cerebral Apoplexy Mix).wav
     Pre-gap length  0:00:01.00
     Peak level 100.0 %
     Track quality 100.0 %
     Test CRC 4CBB7161
     Copy CRC 4CBB7161
     Accurately ripped (confidence 2)  [A4291DF7]
     Copy OK
Track 11
     Filename G:\Mine\my documents\My Music\EAC rips\flac\Various - 2006 - Endzeit Bunkertracks [act II] disc 3\Various - 2006 - Endzeit Bunkertracks [act II] disc 3 - 11 - As We Decay.wav
     Pre-gap length  0:00:01.00
     Peak level 100.0 %
     Track quality 100.0 %
     Test CRC 459A5310
     Copy CRC 459A5310
     Accurately ripped (confidence 2)  [E05EC94A]
     Copy OK
Track 12
     Filename G:\Mine\my documents\My Music\EAC rips\flac\Various - 2006 - Endzeit Bunkertracks [act II] disc 3\Various - 2006 - Endzeit Bunkertracks [act II] disc 3 - 12 - Nothing Stays.wav
     Pre-gap length  0:00:01.00
     Peak level 100.0 %
     Track quality 100.0 %
     Test CRC 6AA508E6
     Copy CRC 6AA508E6
     Accurately ripped (confidence 2)  [0CB1C17E]
     Copy OK
Track 13
     Filename G:\Mine\my documents\My Music\EAC rips\flac\Various - 2006 - Endzeit Bunkertracks [act II] disc 3\Various - 2006 - Endzeit Bunkertracks [act II] disc 3 - 13 - Pray.wav
     Pre-gap length  0:00:01.00
     Peak level 100.0 %
     Track quality 100.0 %
     Test CRC FB68C708
     Copy CRC FB68C708
     Accurately ripped (confidence 2)  [D9090738]
     Copy OK
Track 14
     Filename G:\Mine\my documents\My Music\EAC rips\flac\Various - 2006 - Endzeit Bunkertracks [act II] disc 3\Various - 2006 - Endzeit Bunkertracks [act II] disc 3 - 14 - Diseasespreader (Filthy Bitch Mix).wav
     Pre-gap length  0:00:01.00
     Peak level 100.0 %
     Track quality 100.0 %
     Test CRC 89A7DF02
     Copy CRC 89A7DF02
     Accurately ripped (confidence 2)  [A73C1020]
     Copy OK
Track 15
     Filename G:\Mine\my documents\My Music\EAC rips\flac\Various - 2006 - Endzeit Bunkertracks [act II] disc 3\Various - 2006 - Endzeit Bunkertracks [act II] disc 3 - 15 - Slam (The Happy Dance Version).wav
     Pre-gap length  0:00:01.00
     Peak level 100.0 %
     Track quality 99.9 %
     Test CRC C1906811
     Copy CRC C1906811
     Accurately ripped (confidence 2)  [BD2EB177]
     Copy OK
Track 16
     Filename G:\Mine\my documents\My Music\EAC rips\flac\Various - 2006 - Endzeit Bunkertracks [act II] disc 3\Various - 2006 - Endzeit Bunkertracks [act II] disc 3 - 16 - Tanzbefehl (Urban Remix by Heimataerde).wav
     Pre-gap length  0:00:01.00
     Peak level 100.0 %
     Track quality 99.9 %
     Test CRC 4F84C410
     Copy CRC 4F84C410
     Accurately ripped (confidence 2)  [0BBE8B22]
     Copy OK
All tracks accurately ripped
No errors occurred
End of status report
Код:
Exact Audio Copy V0.99 prebeta 4 from 23. January 2008
EAC extraction logfile from 14. May 2009, 8:54
Various / Endzeit Bunkertracks Act II disc 4
Used drive  :   JLMS  DVD-ROM LTD-166S   Adapter: 0  ID: 1
Read mode               : Secure
Utilize accurate stream : Yes
Defeat audio cache      : Yes
Make use of C2 pointers : No
Read offset correction                      : 12
Overread into Lead-In and Lead-Out          : No
Fill up missing offset samples with silence : Yes
Delete leading and trailing silent blocks   : No
Null samples used in CRC calculations       : Yes
Used interface                              : Native Win32 interface for Win NT & 2000
Gap handling                                : Appended to previous track
Used output format              : User Defined Encoder
Selected bitrate                : 192 kBit/s
Quality                         : High
Add ID3 tag                     : No
Command line compressor         : C:\Program Files\Exact Audio Copy\Flac\flac.exe
Additional command line options : -V -8 -T "artist=%a" -T "title=%t" -T "album=%g" -T "date=%y" -T "tracknumber=%n" -T "genre=%m" %s
TOC of the extracted CD
     Track |   Start  |  Length  | Start sector | End sector
    ---------------------------------------------------------
        1  |  0:00.00 |  3:55.74 |         0    |    17698
        2  |  3:55.74 |  4:55.68 |     17699    |    39891
        3  |  8:51.67 |  4:40.14 |     39892    |    60905
        4  | 13:32.06 |  4:23.65 |     60906    |    80695
        5  | 17:55.71 |  4:10.44 |     80696    |    99489
        6  | 22:06.40 |  4:37.08 |     99490    |   120272
        7  | 26:43.48 |  5:20.35 |    120273    |   144307
        8  | 32:04.08 |  6:23.30 |    144308    |   173062
        9  | 38:27.38 |  4:40.02 |    173063    |   194064
       10  | 43:07.40 |  5:33.39 |    194065    |   219078
       11  | 48:41.04 |  4:06.27 |    219079    |   237555
       12  | 52:47.31 |  3:21.42 |    237556    |   252672
       13  | 56:08.73 |  3:39.40 |    252673    |   269137
       14  | 59:48.38 |  4:30.72 |    269138    |   289459
       15  | 64:19.35 |  4:30.73 |    289460    |   309782
       16  | 68:50.33 |  4:43.28 |    309783    |   331035
Track  1
     Filename G:\Mine\my documents\My Music\EAC rips\flac\Various - 2006 - Endzeit Bunkertracks Act II disc 4\Various - 2006 - Endzeit Bunkertracks Act II disc 4 - 01 - Drache und Baum.wav
     Pre-gap length  0:00:02.00
     Peak level 100.0 %
     Track quality 100.0 %
     Test CRC 58220F8D
     Copy CRC 58220F8D
     Accurately ripped (confidence 2)  [6FD44F9E]
     Copy OK
Track  2
     Filename G:\Mine\my documents\My Music\EAC rips\flac\Various - 2006 - Endzeit Bunkertracks Act II disc 4\Various - 2006 - Endzeit Bunkertracks Act II disc 4 - 02 - You Push Me.wav
     Pre-gap length  0:00:01.00
     Peak level 100.0 %
     Track quality 100.0 %
     Test CRC 046CCDB4
     Copy CRC 046CCDB4
     Accurately ripped (confidence 2)  [E41F0C0A]
     Copy OK
Track  3
     Filename G:\Mine\my documents\My Music\EAC rips\flac\Various - 2006 - Endzeit Bunkertracks Act II disc 4\Various - 2006 - Endzeit Bunkertracks Act II disc 4 - 03 - Digital Mangina.wav
     Pre-gap length  0:00:01.00
     Peak level 100.0 %
     Track quality 100.0 %
     Test CRC B14EC98A
     Copy CRC B14EC98A
     Accurately ripped (confidence 2)  [C258823C]
     Copy OK
Track  4
     Filename G:\Mine\my documents\My Music\EAC rips\flac\Various - 2006 - Endzeit Bunkertracks Act II disc 4\Various - 2006 - Endzeit Bunkertracks Act II disc 4 - 04 - Angst.wav
     Pre-gap length  0:00:01.00
     Peak level 100.0 %
     Track quality 100.0 %
     Test CRC 753E24CA
     Copy CRC 753E24CA
     Accurately ripped (confidence 2)  [5A4D5CA5]
     Copy OK
Track  5
     Filename G:\Mine\my documents\My Music\EAC rips\flac\Various - 2006 - Endzeit Bunkertracks Act II disc 4\Various - 2006 - Endzeit Bunkertracks Act II disc 4 - 05 - Motivation for the Unseen Things.wav
     Pre-gap length  0:00:01.00
     Peak level 100.0 %
     Track quality 100.0 %
     Test CRC DE8B67E2
     Copy CRC DE8B67E2
     Accurately ripped (confidence 2)  [0A203B3B]
     Copy OK
Track  6
     Filename G:\Mine\my documents\My Music\EAC rips\flac\Various - 2006 - Endzeit Bunkertracks Act II disc 4\Various - 2006 - Endzeit Bunkertracks Act II disc 4 - 06 - Deny.wav
     Pre-gap length  0:00:01.00
     Peak level 100.0 %
     Track quality 100.0 %
     Test CRC CB3996A6
     Copy CRC CB3996A6
     Accurately ripped (confidence 2)  [FF6F7376]
     Copy OK
Track  7
     Filename G:\Mine\my documents\My Music\EAC rips\flac\Various - 2006 - Endzeit Bunkertracks Act II disc 4\Various - 2006 - Endzeit Bunkertracks Act II disc 4 - 07 - La Menthe Vйnйneuse.wav
     Pre-gap length  0:00:01.00
     Peak level 100.0 %
     Track quality 99.9 %
     Test CRC 89867229
     Copy CRC 89867229
     Track not present in AccurateRip database
     Copy OK
Track  8
     Filename G:\Mine\my documents\My Music\EAC rips\flac\Various - 2006 - Endzeit Bunkertracks Act II disc 4\Various - 2006 - Endzeit Bunkertracks Act II disc 4 - 08 - Chaosmancer (Siva Six Mix).wav
     Pre-gap length  0:00:01.00
     Peak level 100.0 %
     Track quality 100.0 %
     Test CRC D0803624
     Copy CRC D0803624
     Accurately ripped (confidence 2)  [3110B11E]
     Copy OK
Track  9
     Filename G:\Mine\my documents\My Music\EAC rips\flac\Various - 2006 - Endzeit Bunkertracks Act II disc 4\Various - 2006 - Endzeit Bunkertracks Act II disc 4 - 09 - Dysmorphia.wav
     Pre-gap length  0:00:01.00
     Peak level 100.0 %
     Track quality 100.0 %
     Test CRC 469BE129
     Copy CRC 469BE129
     Accurately ripped (confidence 2)  [A30A1138]
     Copy OK
Track 10
     Filename G:\Mine\my documents\My Music\EAC rips\flac\Various - 2006 - Endzeit Bunkertracks Act II disc 4\Various - 2006 - Endzeit Bunkertracks Act II disc 4 - 10 - Slow Motion (Aslan Faction Mix).wav
     Pre-gap length  0:00:01.00
     Peak level 100.0 %
     Track quality 100.0 %
     Test CRC 2251172E
     Copy CRC 2251172E
     Accurately ripped (confidence 2)  [17DC8508]
     Copy OK
Track 11
     Filename G:\Mine\my documents\My Music\EAC rips\flac\Various - 2006 - Endzeit Bunkertracks Act II disc 4\Various - 2006 - Endzeit Bunkertracks Act II disc 4 - 11 - Prophetic.wav
     Pre-gap length  0:00:01.00
     Peak level 100.0 %
     Track quality 99.9 %
     Test CRC 46BE380D
     Copy CRC 46BE380D
     Accurately ripped (confidence 2)  [7D86FA0A]
     Copy OK
Track 12
     Filename G:\Mine\my documents\My Music\EAC rips\flac\Various - 2006 - Endzeit Bunkertracks Act II disc 4\Various - 2006 - Endzeit Bunkertracks Act II disc 4 - 12 - Fьr Zwei (bunker mix).wav
     Pre-gap length  0:00:01.00
     Peak level 100.0 %
     Track quality 99.9 %
     Test CRC 180C9B58
     Copy CRC 180C9B58
     Accurately ripped (confidence 2)  [7830366C]
     Copy OK
Track 13
     Filename G:\Mine\my documents\My Music\EAC rips\flac\Various - 2006 - Endzeit Bunkertracks Act II disc 4\Various - 2006 - Endzeit Bunkertracks Act II disc 4 - 13 - My Legions.wav
     Pre-gap length  0:00:01.00
     Peak level 100.0 %
     Track quality 100.0 %
     Test CRC 96005158
     Copy CRC 96005158
     Accurately ripped (confidence 2)  [6EC842EC]
     Copy OK
Track 14
     Filename G:\Mine\my documents\My Music\EAC rips\flac\Various - 2006 - Endzeit Bunkertracks Act II disc 4\Various - 2006 - Endzeit Bunkertracks Act II disc 4 - 14 - Sick Fuck (aesthetic perfection mix).wav
     Pre-gap length  0:00:01.00
     Peak level 100.0 %
     Track quality 99.9 %
     Test CRC 825D0D56
     Copy CRC 825D0D56
     Accurately ripped (confidence 2)  [C4DCEAF6]
     Copy OK
Track 15
     Filename G:\Mine\my documents\My Music\EAC rips\flac\Various - 2006 - Endzeit Bunkertracks Act II disc 4\Various - 2006 - Endzeit Bunkertracks Act II disc 4 - 15 - Looser's Letter (Ammonium Mix).wav
     Pre-gap length  0:00:01.00
     Peak level 100.0 %
     Track quality 99.9 %
     Test CRC 263F353F
     Copy CRC 263F353F
     Accurately ripped (confidence 2)  [7CC01048]
     Copy OK
Track 16
     Filename G:\Mine\my documents\My Music\EAC rips\flac\Various - 2006 - Endzeit Bunkertracks Act II disc 4\Various - 2006 - Endzeit Bunkertracks Act II disc 4 - 16 - The Suffering.wav
     Pre-gap length  0:00:01.00
     Peak level 100.0 %
     Track quality 100.0 %
     Test CRC F47930DF
     Copy CRC F47930DF
     Accurately ripped (confidence 2)  [3D848C3F]
     Copy OK
15 track(s) accurately ripped
 1 track(s) not present in the AccurateRip database
Some tracks could not be verified as accurate
No errors occurred
End of status report
Код:
REM GENRE Industrial
REM DATE 2006
REM DISCID FE114310
REM COMMENT "ExactAudioCopy v0.99pb4"
PERFORMER "Various"
TITLE "Endzeit Bunkertracks [act II] disc 1"
FILE "01 - The Retrosic - The storm.wav" WAVE
  TRACK 01 AUDIO
    TITLE "The storm"
    PERFORMER "Retrosic"
    INDEX 01 00:00:00
  TRACK 02 AUDIO
    TITLE "Witness of your decease"
    PERFORMER "X-Fusion"
    INDEX 00 05:59:69
FILE "02 - X-Fusion - Witness of your decease.wav" WAVE
    INDEX 01 00:00:00
  TRACK 03 AUDIO
    TITLE "Dead set [7 am]"
    PERFORMER "Glis"
    INDEX 00 04:13:05
FILE "03 - Glis - Dead set [7 am].wav" WAVE
    INDEX 01 00:00:00
  TRACK 04 AUDIO
    TITLE "Ruler"
    PERFORMER "Soman"
    INDEX 00 04:10:02
FILE "04 - Soman - Ruler.wav" WAVE
    INDEX 01 00:00:00
  TRACK 05 AUDIO
    TITLE "50360329"
    PERFORMER "Monolith"
    INDEX 00 04:37:31
FILE "05 - Monolith - 50360329.wav" WAVE
    INDEX 01 00:00:00
  TRACK 06 AUDIO
    TITLE "Die Wut"
    PERFORMER "T.H.Industry"
    INDEX 00 03:45:50
FILE "06 - T.H. Industry - Die Wut.wav" WAVE
    INDEX 01 00:00:00
  TRACK 07 AUDIO
    TITLE "Havestar (CombiChrist mix)"
    PERFORMER "I:Scintilla"
    INDEX 00 04:52:49
FILE "07 - IScintilla - Havestar (CombiChrist mix).wav" WAVE
    INDEX 01 00:00:00
  TRACK 08 AUDIO
    TITLE "Jezebel (bt-mix)"
    PERFORMER "Noisuf-X"
    INDEX 00 04:39:57
FILE "08 - Noisuf-X - Jezebel (bt-mix).wav" WAVE
    INDEX 01 00:00:00
  TRACK 09 AUDIO
    TITLE "Sleepercell"
    PERFORMER "Endif"
    INDEX 00 04:11:27
FILE "09 - Endif - Sleepercell.wav" WAVE
    INDEX 01 00:00:00
  TRACK 10 AUDIO
    TITLE "Intoxicate"
    PERFORMER "Stray"
    INDEX 00 04:14:50
FILE "10 -Stray - Intoxicate.wav" WAVE
    INDEX 01 00:00:00
  TRACK 11 AUDIO
    TITLE "Rubicon"
    PERFORMER "Kobold"
    INDEX 00 05:29:19
FILE "11 - Kobold - Rubicon.wav" WAVE
    INDEX 01 00:00:00
  TRACK 12 AUDIO
    TITLE "Find a way"
    PERFORMER "Neikka RPM feat Implant"
    INDEX 00 04:18:36
FILE "12 - Neikka RPM Feat. Implant - Find a way.wav" WAVE
    INDEX 01 00:00:00
  TRACK 13 AUDIO
    TITLE "Mother hunger"
    PERFORMER "die Sektor"
    INDEX 00 03:31:65
FILE "13 - Die Sektor - Mother hunger.wav" WAVE
    INDEX 01 00:00:00
  TRACK 14 AUDIO
    TITLE "Religion (MILDREDA mix)"
    PERFORMER "Diskonnekted feat Johan Van Roy"
    INDEX 00 06:15:02
FILE "14 - Diskonnekted Feat. Suicide Commando - Religion (MILDREDA mix).wav" WAVE
    INDEX 01 00:00:00
  TRACK 15 AUDIO
    TITLE "Words of judas (Supreme Court mix)"
    PERFORMER "Dioxyde"
    INDEX 00 04:19:56
FILE "15 - Dioxyde - Words of judas (Supreme Court mix).wav" WAVE
    INDEX 01 00:00:00
  TRACK 16 AUDIO
    TITLE "Self deception (hard version)"
    PERFORMER "Winterstahl"
    INDEX 00 04:24:45
FILE "16 - Winterstahl - Self deception (hard version).wav" WAVE
    INDEX 01 00:00:00
Код:
REM GENRE Industrial
REM DATE 2006
REM DISCID E5114010
REM COMMENT "ExactAudioCopy v0.99pb4"
PERFORMER "Various"
TITLE "Endzeit Bunkertracks [act II] disc 2"
FILE "01 - Negri Bodies  - I.T.D..wav" WAVE
  TRACK 01 AUDIO
    TITLE "I.T.D."
    PERFORMER "Negri Bodies"
    INDEX 01 00:00:00
  TRACK 02 AUDIO
    TITLE "Bleed For Us All (Unter Null Mix)"
    PERFORMER "Suicide Commando"
    INDEX 00 03:40:74
FILE "02 - Suicide Commando - Bleed For Us All (Unter Null Mix).wav" WAVE
    INDEX 01 00:00:00
  TRACK 03 AUDIO
    TITLE "Gib Mir"
    PERFORMER "Heimataerde"
    INDEX 00 04:05:03
FILE 03 - Heimataerde - Gib Mir.wav" WAVE
    INDEX 01 00:00:00
  TRACK 04 AUDIO
    TITLE "Subversive (Corrupted Re-edit)"
    PERFORMER "Inure"
    INDEX 00 03:25:35
FILE "04 - Inure  - Subversive (Corrupted Re-edit).wav" WAVE
    INDEX 01 00:00:00
  TRACK 05 AUDIO
    TITLE "Downstairs"
    PERFORMER "Necro Facility"
    INDEX 00 04:51:67
FILE "05 - Necro Facility - Downstairs.wav" WAVE
    INDEX 01 00:00:00
  TRACK 06 AUDIO
    TITLE "Driving Off A Cliff With A Cult (An Old Friend Nearly Killed Me Mix)"
    PERFORMER "Mentallo & the Fixer"
    INDEX 00 04:27:11
FILE "06 - Mentallo & The Fixer  - Driving Off A Cliff With A Cult (An Old Friend Nearly Killed Me Mix).wav" WAVE
    INDEX 01 00:00:00
  TRACK 07 AUDIO
    TITLE "Butterfly Houses (Edit 2)"
    PERFORMER "Index AI"
    INDEX 00 05:21:69
FILE "07 - Index AI  - Butterfly Houses (Edit 2).wav" WAVE
    INDEX 01 00:00:00
  TRACK 08 AUDIO
    TITLE "Monolith"
    PERFORMER "FIX8:SED8"
    INDEX 00 04:16:21
FILE "08 - FIX8SED8 - Monolith.wav" WAVE
    INDEX 01 00:00:00
  TRACK 09 AUDIO
    TITLE "Acceso denegado (Vigilante mix)"
    PERFORMER "Alien Produkt"
    INDEX 00 05:37:10
FILE "09 - Alien Produkt - Acceso Denegado (Vigilante Mix).wav" WAVE
    INDEX 01 00:00:00
  TRACK 10 AUDIO
    TITLE "We are sinners (made in Denmark mix)"
    PERFORMER "Klutae"
    INDEX 00 03:42:63
FILE "10 - Klutae - We Are Sinners (Made In Denmark Mix).wav" WAVE
    INDEX 01 00:00:00
  TRACK 11 AUDIO
    TITLE "God's wrath"
    PERFORMER "Distorted Memory"
    INDEX 00 05:21:44
FILE "11 - Distorted Memory - God's Wrath.wav" WAVE
    INDEX 01 00:00:00
  TRACK 12 AUDIO
    TITLE "Dresden (reduced)"
    PERFORMER "Dunkelwerk"
    INDEX 00 06:00:05
FILE "12 - Dunkelwerk  - Dresden (Reduced).wav" WAVE
    INDEX 01 00:00:00
  TRACK 13 AUDIO
    TITLE "Das Bunker"
    PERFORMER "Modulate"
    INDEX 00 04:06:33
FILE "13 - Modulate - Das Bunker.wav" WAVE
    INDEX 01 00:00:00
  TRACK 14 AUDIO
    TITLE "Ausgebrannt"
    PERFORMER "Shnarph!"
    INDEX 00 03:43:14
FILE "14 - SHNARPH!  - Ausgebrannt.wav" WAVE
    INDEX 01 00:00:00
  TRACK 15 AUDIO
    TITLE "Beslan"
    PERFORMER "Tactical Sekt"
    INDEX 00 03:34:01
FILE "15 - Tactical Sekt  - Beslan.wav" WAVE
    INDEX 01 00:00:00
  TRACK 16 AUDIO
    TITLE "Possessions (Dawn of Ashes mix)"
    PERFORMER "Retractor"
    INDEX 00 04:50:12
FILE "16 - Retractor  - Possessions (Dawn Of Ashes Mix).wav" WAVE
    INDEX 01 00:00:00
Код:
REM GENRE Industrial
REM DATE 2006
REM DISCID D8115410
REM COMMENT "ExactAudioCopy v0.99pb4"
PERFORMER "Various"
TITLE "Endzeit Bunkertracks [act II] disc 3"
FILE "01 - Necrotek  - Spectre.wav" WAVE
  TRACK 01 AUDIO
    TITLE "Spectre"
    PERFORMER "Necrotek"
    INDEX 01 00:00:00
  TRACK 02 AUDIO
    TITLE "Sanatorium"
    PERFORMER "Skalpell"
    INDEX 00 06:17:74
FILE "02 - Skalpell  - Sanatorium.wav" WAVE
    INDEX 01 00:00:00
  TRACK 03 AUDIO
    TITLE "Smashed"
    PERFORMER "C/A/T"
    INDEX 00 04:21:43
FILE "03 - CAT - Smashed.wav" WAVE
    INDEX 01 00:00:00
  TRACK 04 AUDIO
    TITLE "Bewegungsablauf (Floor 4 Version) "
    PERFORMER "S.I.N.A."
    INDEX 00 04:37:01
FILE "04 - S.I.N.A. - Bewegungsablauf (Floor 4 Version).wav" WAVE
    INDEX 01 00:00:00
  TRACK 05 AUDIO
    TITLE "Technique (Club Mix)"
    PERFORMER "Isis Signum feat Neikka RPM"
    INDEX 00 04:19:71
FILE "05 - Isis Signum  - Technique (Club Mix).wav" WAVE
    INDEX 01 00:00:00
  TRACK 06 AUDIO
    TITLE "Creepy Crawler"
    PERFORMER "Zombie Girl"
    INDEX 00 03:51:24
FILE "06 - Zombie Girl  - Creepy Crawler.wav" WAVE
    INDEX 01 00:00:00
  TRACK 07 AUDIO
    TITLE "Bite of God 2006"
    PERFORMER "Die Form"
    INDEX 00 03:53:29
FILE "07 - Die Form  - Bite Of God 2006.wav" WAVE
    INDEX 01 00:00:00
  TRACK 08 AUDIO
    TITLE "I Feel Love (7')"
    PERFORMER "Plastic Noise Experience"
    INDEX 00 03:45:43
FILE "08 - Plastic Noise Experience - I Feel Love (7').wav" WAVE
    INDEX 01 00:00:00
  TRACK 09 AUDIO
    TITLE "Terra Incognita (Sojourn)"
    PERFORMER "Headscan"
    INDEX 00 05:00:38
FILE "09 - Headscan  - Terra Incognita (Sojourn).wav" WAVE
    INDEX 01 00:00:00
  TRACK 10 AUDIO
    TITLE "Jesus Antichristus (Cerebral Apoplexy Mix)"
    PERFORMER ":Wumpscut:"
    INDEX 00 04:32:09
FILE "10 - wumpscut  - Jesus Antichristus (Cerebral Apoplexy Mix).wav" WAVE
    INDEX 01 00:00:00
  TRACK 11 AUDIO
    TITLE "As We Decay"
    PERFORMER "Life Cried"
    INDEX 00 04:12:14
FILE "11 -  Life Cried  - As We Decay.wav" WAVE
    INDEX 01 00:00:00
  TRACK 12 AUDIO
    TITLE "Nothing Stays"
    PERFORMER "E.S.R."
    INDEX 00 04:58:44
FILE 12 - E.S.R. - Nothing Stays.wav" WAVE
    INDEX 01 00:00:00
  TRACK 13 AUDIO
    TITLE "Pray"
    PERFORMER "FGFC820"
    INDEX 00 05:03:74
FILE "13 - FGFC820 - Pray.wav" WAVE
    INDEX 01 00:00:00
  TRACK 14 AUDIO
    TITLE "Diseasespreader (Filthy Bitch Mix)"
    PERFORMER "Thirteenth Exile"
    INDEX 00 05:25:00
FILE "14 - Thirteenth Exile  - Diseasespreader (Filthy Bitch Mix).wav" WAVE
    INDEX 01 00:00:00
  TRACK 15 AUDIO
    TITLE "Slam (The Happy Dance Version)"
    PERFORMER "Leaether Strip"
    INDEX 00 03:42:56
FILE "15 - Leather Strip - Slam (The Happy Dance Version).wav" WAVE
    INDEX 01 00:00:00
  TRACK 16 AUDIO
    TITLE "Tanzbefehl (Urban Remix by Heimataerde)"
    PERFORMER "Orange Sector"
    INDEX 00 05:06:36
FILE "16 - Orange Sector  - Tanzbefehl (Urban Remix By Heimataerde).wav" WAVE
    INDEX 01 00:00:00
Код:
REM GENRE Industrial
REM DATE 2006
REM DISCID E4113D10
REM COMMENT "ExactAudioCopy v0.99pb4"
PERFORMER "Various"
TITLE "Endzeit Bunkertracks Act II disc 4"
FILE "01 - Neue Weltumfassende Resistance - Drache Und Baum.wav" WAVE
  TRACK 01 AUDIO
    TITLE "Drache und Baum"
    PERFORMER "Neue Weltumfassende Resistance"
    INDEX 01 00:00:00
  TRACK 02 AUDIO
    TITLE "You Push Me"
    PERFORMER "Implant feat. Unter Null"
    INDEX 00 03:54:74
FILE "02 - Implant Feat. Unter Null  - You Push Me.wav" WAVE
    INDEX 01 00:00:00
  TRACK 03 AUDIO
    TITLE "Digital Mangina"
    PERFORMER "Caustic"
    INDEX 00 04:54:68
FILE "03 - Caustic - Digital Mangina.wav" WAVE
    INDEX 01 00:00:00
  TRACK 04 AUDIO
    TITLE "Angst"
    PERFORMER "Reaper"
    INDEX 00 04:39:14
FILE 04 - Reaper - Angst.wav" WAVE
    INDEX 01 00:00:00
  TRACK 05 AUDIO
    TITLE "Motivation for the Unseen Things"
    PERFORMER "Carnivora"
    INDEX 00 04:22:65
FILE "05 - Carnivora  - Motivation For The Unseen Things.wav" WAVE
    INDEX 01 00:00:00
  TRACK 06 AUDIO
    TITLE "Deny"
    PERFORMER "Revolution State"
    INDEX 00 04:09:44
FILE 06 - Revolution State  - Deny.wav" WAVE
    INDEX 01 00:00:00
  TRACK 07 AUDIO
    TITLE "La Menthe Veneneuse"
    PERFORMER "Tamtrum"
    INDEX 00 04:36:08
FILE "07 - Tamtrum - La Menthe Veneneuse.wav" WAVE
    INDEX 01 00:00:00
  TRACK 08 AUDIO
    TITLE "Chaosmancer (6,66 Mix By Noid Of Siva Six)"
    PERFORMER "Iambia"
    INDEX 00 05:19:35
FILE "08 - Iambia  - Chaosmancer (6,66 Mix By Noid Of Siva Six).wav" WAVE
    INDEX 01 00:00:00
  TRACK 09 AUDIO
    TITLE "Dysmorphia"
    PERFORMER "Terror Punk Syndicate"
    INDEX 00 06:22:30
FILE "09 - Terror Punk Syndicate  - Dysmorphia.wav" WAVE
    INDEX 01 00:00:00
  TRACK 10 AUDIO
    TITLE "Slow Motion (Aslan Faction Mix)"
    PERFORMER "Inertia"
    INDEX 00 04:39:02
FILE "10 - Inertia - Slow Motion (Aslan Faction Mix).wav" WAVE
    INDEX 01 00:00:00
  TRACK 11 AUDIO
    TITLE "Prophetic"
    PERFORMER "Sang.Rael"
    INDEX 00 05:32:39
FILE "11-  Sang.Rael - Prophetic.wav" WAVE
    INDEX 01 00:00:00
  TRACK 12 AUDIO
    TITLE "Fьr Zwei (Bunker Mix)"
    PERFORMER "Trial"
    INDEX 00 04:05:27
FILE "12 - Trial - Fur Zwei (Bunker Mix).wav" WAVE
    INDEX 01 00:00:00
  TRACK 13 AUDIO
    TITLE "My Legions"
    PERFORMER "Morphine Shot"
    INDEX 00 03:20:42
FILE "13 - Morphine Shot  - My Legions.wav" WAVE
    INDEX 01 00:00:00
  TRACK 14 AUDIO
    TITLE "Sick Fuck (aesthetic perfection mix)"
    PERFORMER "Unter null"
    INDEX 00 03:38:40
FILE "14 - Unter Null - Sick Fuck (Aesthetic Perfection Mix).wav" WAVE
    INDEX 01 00:00:00
  TRACK 15 AUDIO
    TITLE "Looser's Letter (Ammonium Mix)"
    PERFORMER "Lujhboia"
    INDEX 00 04:29:72
FILE "15 - Lujhboia  - Looser's Letter (Ammonium Remix).wav" WAVE
    INDEX 01 00:00:00
  TRACK 16 AUDIO
    TITLE "The Suffering"
    PERFORMER "Dawn Of Ashes"
    INDEX 00 04:29:73
FILE "16 - Dawn Of Ashes  - The Suffering.wav" WAVE
    INDEX 01 00:00:00
Код:
-----------------------------------------------------------
Started at: четверг, 30. 12. 2010. - 14:50.49
16 files found
01 -===- C:\Users\iReam\Music\Various - 2006 - Endzeit Bunkertracks [act II]\disc 1\01 - The Retrosic - The storm.flac
  Extracted successfully
  Conclusion: This track looks like CDDA with probability 100%
  Tempfile successfully deleted.
02 -===- C:\Users\iReam\Music\Various - 2006 - Endzeit Bunkertracks [act II]\disc 1\02 - X-Fusion - Witness of your decease.flac
  Extracted successfully
  Conclusion: This track looks like MPEG with probability 95%
  Tempfile successfully deleted.
03 -===- C:\Users\iReam\Music\Various - 2006 - Endzeit Bunkertracks [act II]\disc 1\03 - Glis - Dead set [7 am].flac
  Extracted successfully
  Conclusion: This track looks like CDDA with probability 100%
  Tempfile successfully deleted.
04 -===- C:\Users\iReam\Music\Various - 2006 - Endzeit Bunkertracks [act II]\disc 1\04 - Soman - Ruler.flac
  Extracted successfully
  Conclusion: This track looks like CDDA with probability 99%
  Tempfile successfully deleted.
05 -===- C:\Users\iReam\Music\Various - 2006 - Endzeit Bunkertracks [act II]\disc 1\05 - Monolith - 50360329.flac
  Extracted successfully
  Conclusion: This track looks like CDDA with probability 100%
  Tempfile successfully deleted.
06 -===- C:\Users\iReam\Music\Various - 2006 - Endzeit Bunkertracks [act II]\disc 1\06 - T.H. Industry - Die Wut.flac
  Extracted successfully
  Conclusion: This track looks like MPEG with probability 95%
  Tempfile successfully deleted.
07 -===- C:\Users\iReam\Music\Various - 2006 - Endzeit Bunkertracks [act II]\disc 1\07 - IScintilla - Havestar (CombiChrist mix).flac
  Extracted successfully
  Conclusion: This track looks like CDDA with probability 100%
  Tempfile successfully deleted.
08 -===- C:\Users\iReam\Music\Various - 2006 - Endzeit Bunkertracks [act II]\disc 1\08 - Noisuf-X - Jezebel (bt-mix).flac
  Extracted successfully
  Conclusion: This track looks like MPEG with probability 95%
  Tempfile successfully deleted.
09 -===- C:\Users\iReam\Music\Various - 2006 - Endzeit Bunkertracks [act II]\disc 1\09 - Endif - Sleepercell.flac
  Extracted successfully
  Conclusion: This track looks like CDDA with probability 100%
  Tempfile successfully deleted.
10 -===- C:\Users\iReam\Music\Various - 2006 - Endzeit Bunkertracks [act II]\disc 1\10 -Stray - Intoxicate.flac
  Extracted successfully
  Conclusion: This track looks like CDDA with probability 100%
  Tempfile successfully deleted.
11 -===- C:\Users\iReam\Music\Various - 2006 - Endzeit Bunkertracks [act II]\disc 1\11 - Kobold - Rubicon.flac
  Extracted successfully
  Conclusion: This track looks like CDDA with probability 99%
  Tempfile successfully deleted.
12 -===- C:\Users\iReam\Music\Various - 2006 - Endzeit Bunkertracks [act II]\disc 1\12 - Neikka RPM Feat. Implant - Find a way.flac
  Extracted successfully
  Conclusion: This track looks like CDDA with probability 100%
  Tempfile successfully deleted.
13 -===- C:\Users\iReam\Music\Various - 2006 - Endzeit Bunkertracks [act II]\disc 1\13 - Die Sektor - Mother hunger.flac
  Extracted successfully
  Conclusion: This track looks like MPEG with probability 95%
  Tempfile successfully deleted.
14 -===- C:\Users\iReam\Music\Various - 2006 - Endzeit Bunkertracks [act II]\disc 1\14 - Diskonnekted Feat. Suicide Commando - Religion (MILDREDA mix).flac
  Extracted successfully
  Conclusion: This track looks like CDDA with probability 100%
  Tempfile successfully deleted.
15 -===- C:\Users\iReam\Music\Various - 2006 - Endzeit Bunkertracks [act II]\disc 1\15 - Dioxyde - Words of judas (Supreme Court mix).flac
  Extracted successfully
  Conclusion: This track looks like CDDA with probability 100%
  Tempfile successfully deleted.
16 -===- C:\Users\iReam\Music\Various - 2006 - Endzeit Bunkertracks [act II]\disc 1\16 - Winterstahl - Self deception (hard version).flac
  Extracted successfully
  Conclusion: This track looks like CDDA with probability 100%
  Tempfile successfully deleted.
Finished at: четверг, 30. 12. 2010. - 14:57.39 (operation time: 0:06.50)
Код:
-----------------------------------------------------------
Started at: четверг, 30. 12. 2010. - 14:58.49
16 files found
01 -===- C:\Users\iReam\Music\Various - 2006 - Endzeit Bunkertracks [act II]\disc 2\01 - Negri Bodies  - I.T.D..flac
  Extracted successfully
  Conclusion: This track looks like CDDA with probability 100%
  Tempfile successfully deleted.
02 -===- C:\Users\iReam\Music\Various - 2006 - Endzeit Bunkertracks [act II]\disc 2\02 - Suicide Commando - Bleed For Us All (Unter Null Mix).flac
  Extracted successfully
  Conclusion: This track looks like CDDA with probability 100%
  Tempfile successfully deleted.
03 -===- C:\Users\iReam\Music\Various - 2006 - Endzeit Bunkertracks [act II]\disc 2\03 - Heimataerde - Gib Mir.flac
  Extracted successfully
  Conclusion: This track looks like CDDA with probability 100%
  Tempfile successfully deleted.
04 -===- C:\Users\iReam\Music\Various - 2006 - Endzeit Bunkertracks [act II]\disc 2\04 - Inure  - Subversive (Corrupted Re-edit).flac
  Extracted successfully
  Conclusion: This track looks like CDDA with probability 99%
  Tempfile successfully deleted.
05 -===- C:\Users\iReam\Music\Various - 2006 - Endzeit Bunkertracks [act II]\disc 2\05 - Necro Facility - Downstairs.flac
  Extracted successfully
  Conclusion: This track looks like CDDA with probability 100%
  Tempfile successfully deleted.
06 -===- C:\Users\iReam\Music\Various - 2006 - Endzeit Bunkertracks [act II]\disc 2\06 - Mentallo & The Fixer  - Driving Off A Cliff With A Cult (An Old Friend Nearly Killed Me Mix).flac
  Extracted successfully
  Conclusion: This track looks like CDDA with probability 100%
  Tempfile successfully deleted.
07 -===- C:\Users\iReam\Music\Various - 2006 - Endzeit Bunkertracks [act II]\disc 2\07 - Index AI  - Butterfly Houses (Edit 2).flac
  Extracted successfully
  Conclusion: This track looks like CDDA with probability 100%
  Tempfile successfully deleted.
08 -===- C:\Users\iReam\Music\Various - 2006 - Endzeit Bunkertracks [act II]\disc 2\08 - FIX8SED8 - Monolith.flac
  Extracted successfully
  Conclusion: This track looks like CDDA with probability 99%
  Tempfile successfully deleted.
09 -===- C:\Users\iReam\Music\Various - 2006 - Endzeit Bunkertracks [act II]\disc 2\09 - Alien Produkt - Acceso Denegado (Vigilante Mix).flac
  Extracted successfully
  Conclusion: This track looks like MPEG with probability 95%
  Tempfile successfully deleted.
10 -===- C:\Users\iReam\Music\Various - 2006 - Endzeit Bunkertracks [act II]\disc 2\10 - Klutae - We Are Sinners (Made In Denmark Mix).flac
  Extracted successfully
  Conclusion: This track looks like CDDA with probability 99%
  Tempfile successfully deleted.
11 -===- C:\Users\iReam\Music\Various - 2006 - Endzeit Bunkertracks [act II]\disc 2\11 - Distorted Memory - God's Wrath.flac
  Extracted successfully
  Conclusion: This track looks like MPEG with probability 95%
  Tempfile successfully deleted.
12 -===- C:\Users\iReam\Music\Various - 2006 - Endzeit Bunkertracks [act II]\disc 2\12 - Dunkelwerk  - Dresden (Reduced).flac
  Extracted successfully
  Conclusion: This track looks like CDDA with probability 99%
  Tempfile successfully deleted.
13 -===- C:\Users\iReam\Music\Various - 2006 - Endzeit Bunkertracks [act II]\disc 2\13 - Modulate - Das Bunker.flac
  Extracted successfully
  Conclusion: This track looks like CDDA with probability 100%
  Tempfile successfully deleted.
14 -===- C:\Users\iReam\Music\Various - 2006 - Endzeit Bunkertracks [act II]\disc 2\14 - SHNARPH!  - Ausgebrannt.flac
  Extracted successfully
  Conclusion: This track looks like CDDA with probability 99%
  Tempfile successfully deleted.
15 -===- C:\Users\iReam\Music\Various - 2006 - Endzeit Bunkertracks [act II]\disc 2\15 - Tactical Sekt  - Beslan.flac
  Extracted successfully
  Conclusion: This track looks like CDDA with probability 100%
  Tempfile successfully deleted.
16 -===- C:\Users\iReam\Music\Various - 2006 - Endzeit Bunkertracks [act II]\disc 2\16 - Retractor  - Possessions (Dawn Of Ashes Mix).flac
  Extracted successfully
  Conclusion: This track looks like MPEG with probability 95%
  Tempfile successfully deleted.
Finished at: четверг, 30. 12. 2010. - 15:06.25 (operation time: 0:07.36)
Код:
-----------------------------------------------------------
Started at: четверг, 30. 12. 2010. - 15:08.24
16 files found
01 -===- C:\Users\iReam\Music\Various - 2006 - Endzeit Bunkertracks [act II]\disc 3\01 - Necrotek  - Spectre.flac
  Extracted successfully
  Conclusion: This track looks like CDDA with probability 99%
  Tempfile successfully deleted.
02 -===- C:\Users\iReam\Music\Various - 2006 - Endzeit Bunkertracks [act II]\disc 3\02 - Skalpell  - Sanatorium.flac
  Extracted successfully
  Conclusion: This track looks like CDDA with probability 100%
  Tempfile successfully deleted.
03 -===- C:\Users\iReam\Music\Various - 2006 - Endzeit Bunkertracks [act II]\disc 3\03 - CAT - Smashed.flac
  Extracted successfully
  Conclusion: This track looks like CDDA with probability 100%
  Tempfile successfully deleted.
04 -===- C:\Users\iReam\Music\Various - 2006 - Endzeit Bunkertracks [act II]\disc 3\04 - S.I.N.A. - Bewegungsablauf (Floor 4 Version).flac
  Extracted successfully
  Conclusion: This track looks like CDDA with probability 100%
  Tempfile successfully deleted.
05 -===- C:\Users\iReam\Music\Various - 2006 - Endzeit Bunkertracks [act II]\disc 3\05 - Isis Signum  - Technique (Club Mix).flac
  Extracted successfully
  Conclusion: This track looks like CDDA with probability 100%
  Tempfile successfully deleted.
06 -===- C:\Users\iReam\Music\Various - 2006 - Endzeit Bunkertracks [act II]\disc 3\06 - Zombie Girl  - Creepy Crawler.flac
  Extracted successfully
  Conclusion: This track looks like CDDA with probability 99%
  Tempfile successfully deleted.
07 -===- C:\Users\iReam\Music\Various - 2006 - Endzeit Bunkertracks [act II]\disc 3\07 - Die Form  - Bite Of God 2006.flac
  Extracted successfully
  Conclusion: This track looks like CDDA with probability 100%
  Tempfile successfully deleted.
08 -===- C:\Users\iReam\Music\Various - 2006 - Endzeit Bunkertracks [act II]\disc 3\08 - Plastic Noise Experience - I Feel Love (7').flac
  Extracted successfully
  Conclusion: This track looks like CDDA with probability 99%
  Tempfile successfully deleted.
09 -===- C:\Users\iReam\Music\Various - 2006 - Endzeit Bunkertracks [act II]\disc 3\09 - Headscan  - Terra Incognita (Sojourn).flac
  Extracted successfully
  Conclusion: This track looks like CDDA with probability 100%
  Tempfile successfully deleted.
10 -===- C:\Users\iReam\Music\Various - 2006 - Endzeit Bunkertracks [act II]\disc 3\10 - wumpscut  - Jesus Antichristus (Cerebral Apoplexy Mix).flac
  Extracted successfully
  Conclusion: This track looks like CDDA with probability 100%
  Tempfile successfully deleted.
11 -===- C:\Users\iReam\Music\Various - 2006 - Endzeit Bunkertracks [act II]\disc 3\11 -  Life Cried  - As We Decay.flac
  Extracted successfully
  Conclusion: This track looks like CDDA with probability 100%
  Tempfile successfully deleted.
12 -===- C:\Users\iReam\Music\Various - 2006 - Endzeit Bunkertracks [act II]\disc 3\12 - E.S.R. - Nothing Stays.flac
  Extracted successfully
  Conclusion: This track looks like CDDA with probability 100%
  Tempfile successfully deleted.
13 -===- C:\Users\iReam\Music\Various - 2006 - Endzeit Bunkertracks [act II]\disc 3\13 - FGFC820 - Pray.flac
  Extracted successfully
  Conclusion: This track looks like CDDA with probability 100%
  Tempfile successfully deleted.
14 -===- C:\Users\iReam\Music\Various - 2006 - Endzeit Bunkertracks [act II]\disc 3\14 - Thirteenth Exile  - Diseasespreader (Filthy Bitch Mix).flac
  Extracted successfully
  Conclusion: This track looks like CDDA with probability 100%
  Tempfile successfully deleted.
15 -===- C:\Users\iReam\Music\Various - 2006 - Endzeit Bunkertracks [act II]\disc 3\15 - Leather Strip - Slam (The Happy Dance Version).flac
  Extracted successfully
  Conclusion: This track looks like CDDA with probability 100%
  Tempfile successfully deleted.
16 -===- C:\Users\iReam\Music\Various - 2006 - Endzeit Bunkertracks [act II]\disc 3\16 - Orange Sector  - Tanzbefehl (Urban Remix By Heimataerde).flac
  Extracted successfully
  Conclusion: Could not qualify the source of this track.
  Tempfile successfully deleted.
Finished at: четверг, 30. 12. 2010. - 15:16.15 (operation time: 0:07.50)
Код:
-----------------------------------------------------------
Started at: четверг, 30. 12. 2010. - 15:18.20
16 files found
01 -===- C:\Users\iReam\Music\Various - 2006 - Endzeit Bunkertracks [act II]\disc 4\01 - Neue Weltumfassende Resistance - Drache Und Baum.flac
  Extracted successfully
  Conclusion: This track looks like CDDA with probability 100%
  Tempfile successfully deleted.
02 -===- C:\Users\iReam\Music\Various - 2006 - Endzeit Bunkertracks [act II]\disc 4\02 - Implant Feat. Unter Null  - You Push Me.flac
  Extracted successfully
  Conclusion: This track looks like CDDA with probability 100%
  Tempfile successfully deleted.
03 -===- C:\Users\iReam\Music\Various - 2006 - Endzeit Bunkertracks [act II]\disc 4\03 - Caustic - Digital Mangina.flac
  Extracted successfully
  Conclusion: This track looks like MPEG with probability 80%
  Tempfile successfully deleted.
04 -===- C:\Users\iReam\Music\Various - 2006 - Endzeit Bunkertracks [act II]\disc 4\04 - Reaper - Angst.flac
  Extracted successfully
  Conclusion: This track looks like CDDA with probability 100%
  Tempfile successfully deleted.
05 -===- C:\Users\iReam\Music\Various - 2006 - Endzeit Bunkertracks [act II]\disc 4\05 - Carnivora  - Motivation For The Unseen Things.flac
  Extracted successfully
  Conclusion: This track looks like CDDA with probability 100%
  Tempfile successfully deleted.
06 -===- C:\Users\iReam\Music\Various - 2006 - Endzeit Bunkertracks [act II]\disc 4\06 - Revolution State  - Deny.flac
  Extracted successfully
  Conclusion: This track looks like CDDA with probability 100%
  Tempfile successfully deleted.
07 -===- C:\Users\iReam\Music\Various - 2006 - Endzeit Bunkertracks [act II]\disc 4\07 - Tamtrum - La Menthe Veneneuse.flac
  Extracted successfully
  Conclusion: This track looks like CDDA with probability 99%
  Tempfile successfully deleted.
08 -===- C:\Users\iReam\Music\Various - 2006 - Endzeit Bunkertracks [act II]\disc 4\08 - Iambia  - Chaosmancer (6,66 Mix By Noid Of Siva Six).flac
  Extracted successfully
  Conclusion: This track looks like CDDA with probability 100%
  Tempfile successfully deleted.
09 -===- C:\Users\iReam\Music\Various - 2006 - Endzeit Bunkertracks [act II]\disc 4\09 - Terror Punk Syndicate  - Dysmorphia.flac
  Extracted successfully
  Conclusion: This track looks like CDDA with probability 100%
  Tempfile successfully deleted.
10 -===- C:\Users\iReam\Music\Various - 2006 - Endzeit Bunkertracks [act II]\disc 4\10 - Inertia - Slow Motion (Aslan Faction Mix).flac
  Extracted successfully
  Conclusion: This track looks like CDDA with probability 99%
  Tempfile successfully deleted.
11 -===- C:\Users\iReam\Music\Various - 2006 - Endzeit Bunkertracks [act II]\disc 4\11-  Sang.Rael - Prophetic.flac
  Extracted successfully
  Conclusion: This track looks like CDDA with probability 100%
  Tempfile successfully deleted.
12 -===- C:\Users\iReam\Music\Various - 2006 - Endzeit Bunkertracks [act II]\disc 4\12 - Trial - Fur Zwei (Bunker Mix).flac
  Extracted successfully
  Conclusion: This track looks like CDDA with probability 100%
  Tempfile successfully deleted.
13 -===- C:\Users\iReam\Music\Various - 2006 - Endzeit Bunkertracks [act II]\disc 4\13 - Morphine Shot  - My Legions.flac
  Extracted successfully
  Conclusion: This track looks like MPEG with probability 95%
  Tempfile successfully deleted.
14 -===- C:\Users\iReam\Music\Various - 2006 - Endzeit Bunkertracks [act II]\disc 4\14 - Unter Null - Sick Fuck (Aesthetic Perfection Mix).flac
  Extracted successfully
  Conclusion: This track looks like CDDA with probability 99%
  Tempfile successfully deleted.
15 -===- C:\Users\iReam\Music\Various - 2006 - Endzeit Bunkertracks [act II]\disc 4\15 - Lujhboia  - Looser's Letter (Ammonium Remix).flac
  Extracted successfully
  Conclusion: This track looks like CDDA with probability 100%
  Tempfile successfully deleted.
16 -===- C:\Users\iReam\Music\Various - 2006 - Endzeit Bunkertracks [act II]\disc 4\16 - Dawn Of Ashes  - The Suffering.flac
  Extracted successfully
  Conclusion: This track looks like MPEG with probability 95%
  Tempfile successfully deleted.
Finished at: четверг, 30. 12. 2010. - 15:25.40 (operation time: 0:07.20)
Правила, инструкции, FAQ!!!
Торрент  Добавлен [26 июн 2020, 17:07] Скачать торрент Магнет ссылка
Скачать торрент
[ Размер 17.33 КБ / Просмотров 4 ]

Статус
Проверен 
 
Размер  2.11 ГБ
Приватный: Нет (DHT включён)
.torrent скачан  0
 


     Отправить личное сообщение
   
Страница 1 из 1
Показать сообщения за:  Поле сортировки  
Начать новую тему Ответить на тему


Сейчас этот форум просматривают: нет зарегистрированных пользователей и гости: 0


Вы не можете начинать темы
Вы не можете отвечать на сообщения
Вы не можете редактировать свои сообщения
Вы не можете удалять свои сообщения
Вы не можете добавлять вложения

Перейти:  
cron