Начать новую тему Ответить на тему
Статистика раздачи
Размер: 544.5 МБ | Добавлен: 26 июн 2020, 17:09 | Скачали: 0
Сидеров: 0  [0 байт/сек]    Личеров: 0  [0 байт/сек]
Пред. тема | След. тема 

Автор
Сообщение

СообщениеДобавлено: 26 июн 2020, 17:09 

Ответить с цитатой 

Various Artists - Electropolis: Volume 1





Жанр: EBM, Industrial, Electro
Страна-производитель диска: US
Год издания диска: 1998
Издатель (лейбл): Metropolis
Номер по каталогу: MET 080
Страна: US
Аудиокодек: FLAC (*.flac)
Тип рипа: tracks+.cue
Битрейт аудио: lossless
Продолжительность: 01:15:52
Источник (релизер): What.cd (Uploaded by hulkkar)
Наличие сканов в содержимом раздачи: нет
Треклист:
01 Front Line Assembly - Bliss [6:29]
02 Numb - Blood (Crash And Burn Edit) [8:29]
03 :wumpscut: - Soylent Grün [5:50]
04 Informatik - Entropy [5:09]
05 Mentallo & The Fixer - Vision (Metro Mix) [8:09]
06 Thinking Man - Screaming Saints (Numb Remix) [4:39]
07 Out Out - Futile (Version 9D) [3:45]
08 Terminal Sect - Backwards Effigy [4:47]
09 Necrofix - Il Mostro [4:11]
10 In Strict Confidence - Prediction(Extended Mix) [5:22]
11 Funker Vogt - Killing Fields (Guitar Fixer Mix) [5:04]
12 Evils Toy - Organics (Slow Motion Mix) [3:55]
13 Haujobb - Time Is Elastic [6:31]
14 Snog - Born To Be Mild (Overture) [3:32]
Код:
Exact Audio Copy V0.99 prebeta 5 from 4. May 2009
EAC extraction logfile from 29. November 2009, 14:34
Various Artists / Electropolis Volume I
Used drive  : PLEXTOR DVDR   PX-708A   Adapter: 2  ID: 1
Read mode               : Secure
Utilize accurate stream : Yes
Defeat audio cache      : Yes
Make use of C2 pointers : No
Read offset correction                      : 30
Overread into Lead-In and Lead-Out          : Yes
Fill up missing offset samples with silence : Yes
Delete leading and trailing silent blocks   : No
Null samples used in CRC calculations       : Yes
Used interface                              : Native Win32 interface for Win NT & 2000
Gap handling                                : Appended to previous track
Used output format              : User Defined Encoder
Selected bitrate                : 768 kBit/s
Quality                         : High
Add ID3 tag                     : No
Command line compressor         : D:\Program Files\Exact Audio Copy\FLAC\FLAC.EXE
Additional command line options : -V -8 -T "artist=%a" -T "title=%t" -T "album=%g" -T "date=%y" -T "tracknumber=%n" -T "genre=%m" %s
TOC of the extracted CD
     Track |   Start  |  Length  | Start sector | End sector
    ---------------------------------------------------------
        1  |  0:00.00 |  6:37.50 |         0    |    29824
        2  |  6:37.50 |  8:32.07 |     29825    |    68231
        3  | 15:09.57 |  5:52.53 |     68232    |    94684
        4  | 21:02.35 |  5:11.72 |     94685    |   118081
        5  | 26:14.32 |  8:12.35 |    118082    |   155016
        6  | 34:26.67 |  4:42.15 |    155017    |   176181
        7  | 39:09.07 |  3:48.13 |    176182    |   193294
        8  | 42:57.20 |  4:50.00 |    193295    |   215044
        9  | 47:47.20 |  4:14.17 |    215045    |   234111
       10  | 52:01.37 |  5:24.65 |    234112    |   258476
       11  | 57:26.27 |  5:07.03 |    258477    |   281504
       12  | 62:33.30 |  3:58.12 |    281505    |   299366
       13  | 66:31.42 |  6:34.18 |    299367    |   328934
       14  | 73:05.60 |  3:34.62 |    328935    |   345046
Track  1
     Filename D:\Rips\FLAC\Various Artists - 1998 - Electropolis Volume I [FLAC]\01 - Bliss.wav
     Pre-gap length  0:00:02.00
     Peak level 100.0 %
     Track quality 100.0 %
     Test CRC 79556137
     Copy CRC 79556137
     Accurately ripped (confidence 3)  [F0E617DC]
     Copy OK
Track  2
     Filename D:\Rips\FLAC\Various Artists - 1998 - Electropolis Volume I [FLAC]\02 - Numb - Blood (Crash and Bleed Edit).wav
     Pre-gap length  0:00:03.28
     Peak level 100.0 %
     Track quality 100.0 %
     Test CRC 2505DF45
     Copy CRC 2505DF45
     Accurately ripped (confidence 3)  [FDD2CD67]
     Copy OK
Track  3
     Filename D:\Rips\FLAC\Various Artists - 1998 - Electropolis Volume I [FLAC]\03 - Soylent Green (German Lyrics).wav
     Pre-gap length  0:00:02.45
     Peak level 100.0 %
     Track quality 100.0 %
     Test CRC 5E692EE7
     Copy CRC 5E692EE7
     Accurately ripped (confidence 3)  [748FD711]
     Copy OK
Track  4
     Filename D:\Rips\FLAC\Various Artists - 1998 - Electropolis Volume I [FLAC]\04 - Entropy.wav
     Pre-gap length  0:00:04.35
     Peak level 100.0 %
     Track quality 100.0 %
     Test CRC 5DD58D73
     Copy CRC 5DD58D73
     Accurately ripped (confidence 3)  [0AAB4897]
     Copy OK
Track  5
     Filename D:\Rips\FLAC\Various Artists - 1998 - Electropolis Volume I [FLAC]\05 - Vision (Metro Mix).wav
     Pre-gap length  0:00:03.35
     Peak level 100.0 %
     Track quality 99.9 %
     Test CRC 3900DDAF
     Copy CRC 3900DDAF
     Accurately ripped (confidence 3)  [21EE2213]
     Copy OK
Track  6
     Filename D:\Rips\FLAC\Various Artists - 1998 - Electropolis Volume I [FLAC]\06 - Screaming Saints (Numb Remix).wav
     Pre-gap length  0:00:02.20
     Peak level 100.0 %
     Track quality 100.0 %
     Test CRC 2C529F73
     Copy CRC 2C529F73
     Accurately ripped (confidence 3)  [45E7258D]
     Copy OK
Track  7
     Filename D:\Rips\FLAC\Various Artists - 1998 - Electropolis Volume I [FLAC]\07 - Futile (Version 9D).wav
     Pre-gap length  0:00:02.12
     Peak level 100.0 %
     Track quality 100.0 %
     Test CRC 26E59C36
     Copy CRC 26E59C36
     Accurately ripped (confidence 3)  [828455D1]
     Copy OK
Track  8
     Filename D:\Rips\FLAC\Various Artists - 1998 - Electropolis Volume I [FLAC]\08 - Backwards Effigy.wav
     Pre-gap length  0:00:04.58
     Peak level 100.0 %
     Track quality 100.0 %
     Test CRC D97EA957
     Copy CRC D97EA957
     Accurately ripped (confidence 3)  [84FEE130]
     Copy OK
Track  9
     Filename D:\Rips\FLAC\Various Artists - 1998 - Electropolis Volume I [FLAC]\09 - Il Mostro.wav
     Pre-gap length  0:00:05.70
     Peak level 100.0 %
     Track quality 100.0 %
     Test CRC A9DC6A67
     Copy CRC A9DC6A67
     Accurately ripped (confidence 3)  [91B1E7AE]
     Copy OK
Track 10
     Filename D:\Rips\FLAC\Various Artists - 1998 - Electropolis Volume I [FLAC]\10 - Prediction (Extended Remix).wav
     Pre-gap length  0:00:02.05
     Peak level 100.0 %
     Track quality 100.0 %
     Test CRC 6ACE41FB
     Copy CRC 6ACE41FB
     Accurately ripped (confidence 3)  [19C87771]
     Copy OK
Track 11
     Filename D:\Rips\FLAC\Various Artists - 1998 - Electropolis Volume I [FLAC]\11 - Killing Fields (Guitar Fixer Mix).wav
     Pre-gap length  0:00:03.32
     Peak level 100.0 %
     Track quality 100.0 %
     Test CRC 1E4E3639
     Copy CRC 1E4E3639
     Accurately ripped (confidence 3)  [4E3DE88F]
     Copy OK
Track 12
     Filename D:\Rips\FLAC\Various Artists - 1998 - Electropolis Volume I [FLAC]\12 - Organics (Slow Motion Mix).wav
     Pre-gap length  0:00:02.13
     Peak level 100.0 %
     Track quality 100.0 %
     Test CRC 26B06CC1
     Copy CRC 26B06CC1
     Accurately ripped (confidence 3)  [28EC74E7]
     Copy OK
Track 13
     Filename D:\Rips\FLAC\Various Artists - 1998 - Electropolis Volume I [FLAC]\13 - Time Is Elastic.wav
     Pre-gap length  0:00:05.10
     Peak level 100.0 %
     Track quality 100.0 %
     Test CRC 64CBA2B1
     Copy CRC 64CBA2B1
     Accurately ripped (confidence 3)  [43AC2EC0]
     Copy OK
Track 14
     Filename D:\Rips\FLAC\Various Artists - 1998 - Electropolis Volume I [FLAC]\14 - Born To Be Mild (Overture).wav
     Pre-gap length  0:00:06.25
     Peak level 100.0 %
     Track quality 99.9 %
     Test CRC 6C5BC151
     Copy CRC 6C5BC151
     Accurately ripped (confidence 3)  [6B2A6AD0]
     Copy OK
All tracks accurately ripped
No errors occurred
End of status report
Код:
REM GENRE Industrial
REM DATE 1998
REM DISCID EB11F80E
REM COMMENT "ExactAudioCopy v0.99pb5"
CATALOG 0000000000000
PERFORMER "Various Artists"
TITLE "Electropolis Volume I"
FILE "01. Front Line Assembly - Bliss.wav" WAVE
  TRACK 01 AUDIO
    TITLE "Bliss"
    PERFORMER "Front Line Assembly"
    INDEX 01 00:00:00
  TRACK 02 AUDIO
    TITLE "Blood (Crash and Bleed Edit)"
    PERFORMER "Numb"
    INDEX 00 06:34:22
FILE "02. Numb - Blood (Crash and Bleed Edit).wav" WAVE
    INDEX 01 00:00:00
  TRACK 03 AUDIO
    TITLE "Soylent Grun (German Lyrics)"
    PERFORMER "Wumpscut"
    INDEX 00 08:29:37
FILE "03. Wumpscut - Soylent Grun (German Lyrics).wav" WAVE
    INDEX 01 00:00:00
  TRACK 04 AUDIO
    TITLE "Entropy"
    PERFORMER "Informatik"
    INDEX 00 05:48:18
FILE "04. Informatik - Entropy.wav" WAVE
    INDEX 01 00:00:00
  TRACK 05 AUDIO
    TITLE "Vision (Metro Mix)"
    PERFORMER "Mentallo & The Fixer"
    INDEX 00 05:08:37
FILE "05. Mentallo & The Fixer - Vision (Metro Mix).wav" WAVE
    INDEX 01 00:00:00
  TRACK 06 AUDIO
    TITLE "Screaming Saints (Numb Remix)"
    PERFORMER "Thinkingman"
    INDEX 00 08:10:15
FILE "06. Thinkingman - Screaming Saints (Numb Remix).wav" WAVE
    INDEX 01 00:00:00
  TRACK 07 AUDIO
    TITLE "Futile (Version 9D)"
    PERFORMER "Out Out"
    INDEX 00 04:40:03
FILE "07. Out Out - Futile (Version 9D).wav" WAVE
    INDEX 01 00:00:00
  TRACK 08 AUDIO
    TITLE "Backwards Effigy"
    PERFORMER "Terminal Sect"
    INDEX 00 03:43:30
FILE "08. Terminal Sect - Backwards Effigy.wav" WAVE
    INDEX 01 00:00:00
  TRACK 09 AUDIO
    TITLE "Il Mostro"
    PERFORMER "Necrofix"
    INDEX 00 04:44:05
FILE "09. Necrofix - Il Mostro.wav" WAVE
    INDEX 01 00:00:00
  TRACK 10 AUDIO
    TITLE "Prediction (Extended Remix)"
    PERFORMER "In Strict Confidence"
    INDEX 00 04:12:12
FILE "10. In Strict Confidence - Prediction (Extended Remix).wav" WAVE
    INDEX 01 00:00:00
  TRACK 11 AUDIO
    TITLE "Killing Fields (Guitar Fixer Mix)"
    PERFORMER "Funker Vogt"
    INDEX 00 05:21:33
FILE "11. Funker Vogt - Killing Fields (Guitar Fixer Mix).wav" WAVE
    INDEX 01 00:00:00
  TRACK 12 AUDIO
    TITLE "Organics (Slow Motion Mix)"
    PERFORMER "Evil's Toy"
    INDEX 00 05:04:65
FILE "12. Evil's Toy - Organics (Slow Motion Mix).wav" WAVE
    INDEX 01 00:00:00
  TRACK 13 AUDIO
    TITLE "Time Is Elastic"
    PERFORMER "Haujobb"
    INDEX 00 03:53:02
FILE "13. Haujobb - Time Is Elastic.wav" WAVE
    INDEX 01 00:00:00
  TRACK 14 AUDIO
    TITLE "Born To Be Mild (Overture)"
    PERFORMER "Snog"
    INDEX 00 06:27:68
FILE "14. Snog - Born To Be Mild (Overture).wav" WAVE
    INDEX 01 00:00:00
Код:
AUDIOCHECKER v2.0 beta (build 457) - by Dester - opdester@freemail.hu
~~~~~~~~~~~~~~~~~~~~~~~~~~~~~~~~~~
-=== DO NOT EDIT THIS FILE! ===-
Path: ...\Various Artists - 1998 - Electropolis Volume I [FLAC]
01 -=- 01. Front Line Assembly - Bliss.flac -=- CDDA (100%)
02 -=- 02. Numb - Blood (Crash and Bleed Edit).flac -=- CDDA (100%)
03 -=- 03. Wumpscut - Soylent Grun (German Lyrics).flac -=- CDDA (100%)
04 -=- 04. Informatik - Entropy.flac -=- CDDA (100%)
05 -=- 05. Mentallo & The Fixer - Vision (Metro Mix).flac -=- CDDA (100%)
06 -=- 06. Thinkingman - Screaming Saints (Numb Remix).flac -=- CDDA (100%)
07 -=- 07. Out Out - Futile (Version 9D).flac -=- CDDA (100%)
08 -=- 08. Terminal Sect - Backwards Effigy.flac -=- CDDA (100%)
09 -=- 09. Necrofix - Il Mostro.flac -=- CDDA (100%)
10 -=- 10. In Strict Confidence - Prediction (Extended Remix).flac -=- CDDA (100%)
11 -=- 11. Funker Vogt - Killing Fields (Guitar Fixer Mix).flac -=- CDDA (100%)
12 -=- 12. Evil's Toy - Organics (Slow Motion Mix).flac -=- CDDA (100%)
13 -=- 13. Haujobb - Time Is Elastic.flac -=- CDDA (100%)
14 -=- 14. Snog - Born To Be Mild (Overture).flac -=- CDDA (99%)
Summary 99,93% CDDA
10793108
Ватный релиз содержал кучу ошибок, по этому был несколько видоизменён:
В название треков добавлен исполнитель
Отредактированы теги в файлах и .cue - убраны умляуты и исправлены ошибки
Соответственно заменён .m3u лист
Правила, инструкции, FAQ!!!
Торрент  Добавлен [26 июн 2020, 17:09] Скачать торрент Магнет ссылка
Скачать торрент
[ Размер 13.32 КБ / Просмотров 3 ]

Статус
Проверен 
 
Размер  544.5 МБ
Приватный: Нет (DHT включён)
.torrent скачан  0
 


     Отправить личное сообщение
   
Страница 1 из 1
Показать сообщения за:  Поле сортировки  
Начать новую тему Ответить на тему


Сейчас этот форум просматривают: нет зарегистрированных пользователей и гости: 0


Вы не можете начинать темы
Вы не можете отвечать на сообщения
Вы не можете редактировать свои сообщения
Вы не можете удалять свои сообщения
Вы не можете добавлять вложения

Перейти:  
cron