Начать новую тему Ответить на тему
Статистика раздачи
Размер: 517.58 МБ | Добавлен: 26 июн 2020, 20:34 | Скачали: 0
Сидеров: 0  [0 байт/сек]    Личеров: 0  [0 байт/сек]
Пред. тема | След. тема 

Автор
Сообщение

СообщениеДобавлено: 26 июн 2020, 20:34 

Ответить с цитатой 

Cygnosic / Fire And Forget
Жанр: EBM, Industrial, Electro
Носитель: CD
Страна-производитель диска (релиза): Germany
Год издания: 2013
Издатель (лейбл): Black Rain Records
Номер по каталогу: BR 098
Страна исполнителя (группы): Greece
Аудиокодек: FLAC (*.flac)
Тип рипа: image+.cue
Битрейт аудио: lossless
Продолжительность: 1:05:28
Источник (релизер): termoflex
Наличие сканов в содержимом раздачи: да
Треклист:
01. Fire And Forget 3:07
02. Escape 3:01
03. This Is The Night 3:52
04. Alone 3:43
05. Crawl 3:31
06. The Drowning 3:07
07. Mad Desire 4:10
08. Begin With Me 3:38
09. One Last Time 3:09
10. Behold The Lie 4:11
11. Greed 3:42
12. The Darkness 4:55
13. Find You 3:16
14. Until Glory 4:20
15. Escape (Chainreactor Remix) 4:42
16. Greed (Powered By Mas-Si-Osare) 4:18
17. The Darkness (amGod Remix) 4:30
Код:
Exact Audio Copy V1.0 beta 3 from 29. August 2011
Отчёт EAC об извлечении, выполненном 16. мая 2013, 10:24
Cygnosic / Fire And Forget
Дисковод: PIONEER DVD-RW  DVR-XD10   Adapter: 1  ID: 0
Режим чтения                 : Достоверность
Использование точного потока : Да
Отключение кэша аудио        : Да
Использование указателей C2  : Нет
Коррекция смещения при чтении                     : 96
Способность читать области Lead-in и Lead-out     : Нет
Заполнение пропущенных сэмплов тишиной            : Да
Удаление блоков с тишиной в начале и конце        : Нет
При вычислениях CRC использовались нулевые сэмплы : Да
Интерфейс                                         : Встроенный Win32-интерфейс для Win NT/2000
Выходной формат          : Пользовательский кодировщик
Выбранный битрейт        : 1024 kBit/s
Качество                 : Высокий
Добавление ID3-тега      : Нет
Утилита сжатия           : C:\Program Files (x86)\Exact Audio Copy\FLAC\FLAC.EXE
Дополнительные параметры : -V -8 -T "Date=%year%" -T "Genre=%genre%" %source%
TOC извлечённого CD
     Трек |   Старт  | Длительность | Начальный сектор | Конечный сектор
    ---------------------------------------------------------------------
       1  |  0:00.00 |    3:07.41   |           0      |      14065
       2  |  3:07.41 |    3:02.00   |       14066      |      27715
       3  |  6:09.41 |    3:52.39   |       27716      |      45154
       4  | 10:02.05 |    3:44.16   |       45155      |      61970
       5  | 13:46.21 |    3:32.23   |       61971      |      77893
       6  | 17:18.44 |    3:07.58   |       77894      |      91976
       7  | 20:26.27 |    4:11.06   |       91977      |     110807
       8  | 24:37.33 |    3:38.67   |      110808      |     127224
       9  | 28:16.25 |    3:09.63   |      127225      |     141462
      10  | 31:26.13 |    4:11.18   |      141463      |     160305
      11  | 35:37.31 |    3:44.42   |      160306      |     177147
      12  | 39:21.73 |    4:56.13   |      177148      |     199360
      13  | 44:18.11 |    3:17.36   |      199361      |     214171
      14  | 47:35.47 |    4:22.33   |      214172      |     233854
      15  | 51:58.05 |    4:42.54   |      233855      |     255058
      16  | 56:40.59 |    4:18.12   |      255059      |     274420
      17  | 60:58.71 |    4:30.01   |      274421      |     294671
Характеристики диапазона извлечения и сообщения об ошибках
Выбранный диапазон
     Имя файла C:\Users\HP\Music\Cygnosic - Fire And Forget.wav
     Пиковый уровень 97.9 %
     Скорость извлечения 4.3 X
     Качество диапазона 100.0 %
     CRC теста 263B0CAB
     CRC копии 263B0CAB
     Копирование... OK
Ошибок не произошло
AccurateRip: сводка
Трек  1  отсутствует в базе данных
Трек  2  отсутствует в базе данных
Трек  3  отсутствует в базе данных
Трек  4  отсутствует в базе данных
Трек  5  отсутствует в базе данных
Трек  6  отсутствует в базе данных
Трек  7  отсутствует в базе данных
Трек  8  отсутствует в базе данных
Трек  9  отсутствует в базе данных
Трек 10  отсутствует в базе данных
Трек 11  отсутствует в базе данных
Трек 12  отсутствует в базе данных
Трек 13  отсутствует в базе данных
Трек 14  отсутствует в базе данных
Трек 15  отсутствует в базе данных
Трек 16  отсутствует в базе данных
Трек 17  отсутствует в базе данных
Ни одного трека нет в базе AccurateRip
Конец отчёта
---- CUETools DB Plugin V2.1.4
[CTDB TOCID: mea5gdj4_TVh7LYHh4IPs9Hm9G4-] disk not present in database
Submit result: mea5gdj4_TVh7LYHh4IPs9Hm9G4- has been uploaded
==== Контрольная сумма отчёта 09C48207B389DAB0F6D97598238A5673A287E49A6A18BFF2190D327134F4E54F ====
Код:
REM GENRE Industrial
REM DATE 2013
REM DISCID F20F5811
REM COMMENT "ExactAudioCopy v1.0b3"
PERFORMER "Cygnosic"
TITLE "Fire And Forget"
FILE "Cygnosic - Fire And Forget.flac" WAVE
  TRACK 01 AUDIO
    TITLE "Fire And Forget"
    PERFORMER "Cygnosic"
    INDEX 01 00:00:00
  TRACK 02 AUDIO
    TITLE "Escape"
    PERFORMER "Cygnosic"
    INDEX 00 03:07:33
    INDEX 01 03:07:41
  TRACK 03 AUDIO
    TITLE "This Is The Night"
    PERFORMER "Cygnosic"
    INDEX 00 06:09:31
    INDEX 01 06:09:41
  TRACK 04 AUDIO
    TITLE "Alone"
    PERFORMER "Cygnosic"
    INDEX 00 10:01:57
    INDEX 01 10:02:05
  TRACK 05 AUDIO
    TITLE "Crawl"
    PERFORMER "Cygnosic"
    INDEX 00 13:45:66
    INDEX 01 13:46:21
  TRACK 06 AUDIO
    TITLE "The Drowning"
    PERFORMER "Cygnosic"
    INDEX 00 17:18:07
    INDEX 01 17:18:44
  TRACK 07 AUDIO
    TITLE "Mad Desire"
    PERFORMER "Cygnosic"
    INDEX 00 20:25:57
    INDEX 01 20:26:27
  TRACK 08 AUDIO
    TITLE "Begin With Me"
    PERFORMER "Cygnosic"
    INDEX 00 24:37:29
    INDEX 01 24:37:33
  TRACK 09 AUDIO
    TITLE "One Last Time "
    PERFORMER "Cygnosic"
    INDEX 00 28:16:06
    INDEX 01 28:16:25
  TRACK 10 AUDIO
    TITLE "Behold The Lie"
    PERFORMER "Cygnosic"
    INDEX 00 31:25:66
    INDEX 01 31:26:13
  TRACK 11 AUDIO
    TITLE "Greed"
    PERFORMER "Cygnosic"
    INDEX 00 35:37:28
    INDEX 01 35:37:31
  TRACK 12 AUDIO
    TITLE "The Darkness"
    PERFORMER "Cygnosic"
    INDEX 00 39:19:74
    INDEX 01 39:21:73
  TRACK 13 AUDIO
    TITLE "Find You"
    PERFORMER "Cygnosic"
    INDEX 00 44:17:73
    INDEX 01 44:18:11
  TRACK 14 AUDIO
    TITLE "Until Glory"
    PERFORMER "Cygnosic"
    INDEX 00 47:34:35
    INDEX 01 47:35:47
  TRACK 15 AUDIO
    TITLE "Escape (Chainreactor Remix) "
    PERFORMER "Cygnosic"
    INDEX 00 51:56:38
    INDEX 01 51:58:05
  TRACK 16 AUDIO
    TITLE "Greed (Powered by Mas-Si-Osare)"
    PERFORMER "Cygnosic"
    INDEX 00 56:40:33
    INDEX 01 56:40:59
  TRACK 17 AUDIO
    TITLE "The Darkness (amGod Remix) "
    PERFORMER "Cygnosic"
    INDEX 00 60:58:46
    INDEX 01 60:58:71
Код:
AUDIOCHECKER v2.0 beta (build 457) - by Dester - opdester@freemail.hu
~~~~~~~~~~~~~~~~~~~~~~~~~~~~~~~~~~
-=== DO NOT EDIT THIS FILE! ===-
Path: ...\Cygnosic - Fire And Forget (2013)
1 -=- Cygnosic - Fire And Forget.flac -=- CDDA (100%)
240033780
Правила, инструкции, FAQ!!!
Торрент  Добавлен [26 июн 2020, 20:34] Скачать торрент Магнет ссылка
Скачать торрент
[ Размер 11.14 КБ / Просмотров 9 ]

Статус
Проверен 
 
Размер  517.58 МБ
Приватный: Нет (DHT включён)
.torrent скачан  0
 


     Отправить личное сообщение
   
Страница 1 из 1
Показать сообщения за:  Поле сортировки  
Начать новую тему Ответить на тему


Сейчас этот форум просматривают: нет зарегистрированных пользователей и гости: 0


Вы не можете начинать темы
Вы не можете отвечать на сообщения
Вы не можете редактировать свои сообщения
Вы не можете удалять свои сообщения
Вы не можете добавлять вложения

Перейти:  
cron