Начать новую тему Ответить на тему
Статистика раздачи
Размер: 988.77 МБ | Добавлен: 26 июн 2020, 20:54 | Скачали: 1
Сидеров: 7  [0 байт/сек]    Личеров: 1  [0 байт/сек]
Пред. тема | След. тема 

Автор
Сообщение

СообщениеДобавлено: 26 июн 2020, 20:54 

Ответить с цитатой 

Acylum / Karzinom (2 CD Ltd.)
Жанр: EBM, Industrial, Electro
Страна-производитель диска: Germany
Год издания диска: 2011
Издатель (лейбл): Alfa Matrix
Номер по каталогу: AM2172DCD
Страна: Belgium
Аудиокодек: FLAC (*.flac)
Тип рипа: image+.cue
Битрейт аудио: lossless
Продолжительность: 1:12:55.03 + 1:08:55.11
Источник (релизер): Собственный рип
Наличие сканов в содержимом раздачи: нет
Треклист:
CD 1
01. Haus Am See [0:04:58.63]
02. Shoot Em Up [0:03:58.02]
03. Sweat Cunt [0:05:03.71]
04. Angel [0:05:15.00]
05. Question [0:05:00.43]
06. Freeze [0:05:08.02]
07. Deathzone [0:04:44.52]
08. Flatliners [0:04:55.47]
09. Deutsch [0:04:12.30]
10. King Acylum [0:05:04.43]
11. Silence [0:03:59.23]
12. Spit On You Grave [0:05:00.36]
13. Freeze (Haushetaere Version) [0:04:04.73]
14. Question (Amgod Remix) [0:05:03.59]
15. Silence (Reaxion Guerrilla Remix) [0:03:47.41]
16. In Memory [0:02:37.18]

CD 2
01. Your Pain V.2.0 [0:05:15.45]
02. Trip Of Hate [0:04:40.36]
03. Black Virus [0:04:35.57]
04. Final Shot [0:04:50.64]
05. Black Death [0:07:25.41]
06. Your Pain [0:05:26.18]
07. War [0:04:39.39]
08. Fear [0:04:38.18]
09. Der Kampf [0:04:12.51]
10. My Pressure Is Hate [0:04:20.74]
11. Your Pain V.2.0 (Vault-113 Remix) [0:04:52.03]
12. Shoot Em Up (Betamorphose Remix) [0:03:57.72]
13. Your Pain V.2.0 (Ethan Fawkes Remix) [0:05:04.03]
14. Question (Distorted Memory Remix) [0:04:55.15]
Код:
Exact Audio Copy V1.0 beta 3 from 29. August 2011
Отчёт EAC об извлечении, выполненном 28. ноября 2011, 14:31
Acylum / Karzinom  (CD 1)
Дисковод: TSSTcorpCDDVDW SH-S223C   Adapter: 1  ID: 0
Режим чтения                 : Достоверность
Использование точного потока : Да
Отключение кэша аудио        : Да
Использование указателей C2  : Нет
Коррекция смещения при чтении                     : 697
Способность читать области Lead-in и Lead-out     : Нет
Заполнение пропущенных сэмплов тишиной            : Да
Удаление блоков с тишиной в начале и конце        : Нет
При вычислениях CRC использовались нулевые сэмплы : Да
Интерфейс                                         : Встроенный Win32-интерфейс для Win NT/2000
Выходной формат          : Пользовательский кодировщик
Выбранный битрейт        : 768 kBit/s
Качество                 : Высокий
Добавление ID3-тега      : Нет
Утилита сжатия           : C:\Program Files\Exact Audio Copy\FLAC\FLAC.EXE
Дополнительные параметры : -6 -V -T "ARTIST=%artist%" -T "TITLE=%title%" -T "ALBUM=%albumtitle%" -T "DATE=%year%" -T "TRACKNUMBER=%tracknr%" -T "GENRE=%genre%" -T "COMMENT=%comment%" -T "BAND=%albuminterpret%" -T "ALBUMARTIST=%albuminterpret%" -T "COMPOSER=%composer%" %haslyrics%--tag-from-file=LYRICS="%lyricsfile%"%haslyrics% -T "DISCNUMBER=%cdnumber%" -T "TOTALDISCS=%totalcds%" -T "TOTALTRACKS=%numtracks%" %hascover%--picture="%coverfile%"%hascover% %source% -o %dest%
TOC извлечённого CD
     Трек |   Старт  | Длительность | Начальный сектор | Конечный сектор
    ---------------------------------------------------------------------
       1  |  0:00.00 |    4:58.63   |           0      |      22412
       2  |  4:58.63 |    3:58.02   |       22413      |      40264
       3  |  8:56.65 |    5:03.71   |       40265      |      63060
       4  | 14:00.61 |    5:15.00   |       63061      |      86685
       5  | 19:15.61 |    5:00.43   |       86686      |     109228
       6  | 24:16.29 |    5:08.02   |      109229      |     132330
       7  | 29:24.31 |    4:44.52   |      132331      |     153682
       8  | 34:09.08 |    4:55.47   |      153683      |     175854
       9  | 39:04.55 |    4:12.30   |      175855      |     194784
      10  | 43:17.10 |    5:04.43   |      194785      |     217627
      11  | 48:21.53 |    3:59.23   |      217628      |     235575
      12  | 52:21.01 |    5:00.36   |      235576      |     258111
      13  | 57:21.37 |    4:04.73   |      258112      |     276484
      14  | 61:26.35 |    5:03.59   |      276485      |     299268
      15  | 66:30.19 |    3:47.41   |      299269      |     316334
      16  | 70:17.60 |    2:37.18   |      316335      |     328127
Характеристики диапазона извлечения и сообщения об ошибках
Выбранный диапазон
     Имя файла C:\EAC\Acylum – Karzinom (2011 Alfa Matrix – AM2172DCD)(Lossless)\CD 1\Acylum - Karzinom  (CD 1).wav
     Пиковый уровень 100.0 %
     Скорость извлечения 2.4 X
     Качество диапазона 100.0 %
     CRC теста BCDB78C5
     CRC копии BCDB78C5
     Копирование... OK
Ошибок не произошло
AccurateRip: сводка
Трек  1  отсутствует в базе данных
Трек  2  отсутствует в базе данных
Трек  3  отсутствует в базе данных
Трек  4  отсутствует в базе данных
Трек  5  отсутствует в базе данных
Трек  6  отсутствует в базе данных
Трек  7  отсутствует в базе данных
Трек  8  отсутствует в базе данных
Трек  9  отсутствует в базе данных
Трек 10  отсутствует в базе данных
Трек 11  отсутствует в базе данных
Трек 12  отсутствует в базе данных
Трек 13  отсутствует в базе данных
Трек 14  отсутствует в базе данных
Трек 15  отсутствует в базе данных
Трек 16  отсутствует в базе данных
Ни одного трека нет в базе AccurateRip
Конец отчёта
==== Контрольная сумма отчёта DC86642921C2C1ACE5FDBA0B8537223DFA7E128759EA05E8B2D378250C8031D1 ====
Код:
Exact Audio Copy V1.0 beta 3 from 29. August 2011
Отчёт EAC об извлечении, выполненном 28. ноября 2011, 22:37
Acylum / Karzinom (CD 2)
Дисковод: TSSTcorpCDDVDW SH-S223C   Adapter: 1  ID: 0
Режим чтения                 : Достоверность
Использование точного потока : Да
Отключение кэша аудио        : Да
Использование указателей C2  : Нет
Коррекция смещения при чтении                     : 697
Способность читать области Lead-in и Lead-out     : Нет
Заполнение пропущенных сэмплов тишиной            : Да
Удаление блоков с тишиной в начале и конце        : Нет
При вычислениях CRC использовались нулевые сэмплы : Да
Интерфейс                                         : Встроенный Win32-интерфейс для Win NT/2000
Выходной формат          : Пользовательский кодировщик
Выбранный битрейт        : 768 kBit/s
Качество                 : Высокий
Добавление ID3-тега      : Нет
Утилита сжатия           : C:\Program Files\Exact Audio Copy\FLAC\FLAC.EXE
Дополнительные параметры : -6 -V -T "ARTIST=%artist%" -T "TITLE=%title%" -T "ALBUM=%albumtitle%" -T "DATE=%year%" -T "TRACKNUMBER=%tracknr%" -T "GENRE=%genre%" -T "COMMENT=%comment%" -T "BAND=%albuminterpret%" -T "ALBUMARTIST=%albuminterpret%" -T "COMPOSER=%composer%" %haslyrics%--tag-from-file=LYRICS="%lyricsfile%"%haslyrics% -T "DISCNUMBER=%cdnumber%" -T "TOTALDISCS=%totalcds%" -T "TOTALTRACKS=%numtracks%" %hascover%--picture="%coverfile%"%hascover% %source% -o %dest%
TOC извлечённого CD
     Трек |   Старт  | Длительность | Начальный сектор | Конечный сектор
    ---------------------------------------------------------------------
       1  |  0:00.00 |    5:15.45   |           0      |      23669
       2  |  5:15.45 |    4:40.36   |       23670      |      44705
       3  |  9:56.06 |    4:35.57   |       44706      |      65387
       4  | 14:31.63 |    4:50.64   |       65388      |      87201
       5  | 19:22.52 |    7:25.41   |       87202      |     120617
       6  | 26:48.18 |    5:26.18   |      120618      |     145085
       7  | 32:14.36 |    4:39.39   |      145086      |     166049
       8  | 36:54.00 |    4:38.18   |      166050      |     186917
       9  | 41:32.18 |    4:12.51   |      186918      |     205868
      10  | 45:44.69 |    4:20.74   |      205869      |     225442
      11  | 50:05.68 |    4:52.03   |      225443      |     247345
      12  | 54:57.71 |    3:57.72   |      247346      |     265192
      13  | 58:55.68 |    5:04.03   |      265193      |     287995
      14  | 63:59.71 |    4:55.15   |      287996      |     310135
Характеристики диапазона извлечения и сообщения об ошибках
Выбранный диапазон
     Имя файла C:\EAC\Acylum – Karzinom (2011 Alfa Matrix – AM2172DCD)(Lossless)\CD 2\Acylum - Karzinom (CD 2).wav
     Пиковый уровень 100.0 %
     Скорость извлечения 3.6 X
     Качество диапазона 100.0 %
     CRC теста 30D2E071
     CRC копии 30D2E071
     Копирование... OK
Ошибок не произошло
AccurateRip: сводка
Трек  1  отсутствует в базе данных
Трек  2  отсутствует в базе данных
Трек  3  отсутствует в базе данных
Трек  4  отсутствует в базе данных
Трек  5  отсутствует в базе данных
Трек  6  отсутствует в базе данных
Трек  7  отсутствует в базе данных
Трек  8  отсутствует в базе данных
Трек  9  отсутствует в базе данных
Трек 10  отсутствует в базе данных
Трек 11  отсутствует в базе данных
Трек 12  отсутствует в базе данных
Трек 13  отсутствует в базе данных
Трек 14  отсутствует в базе данных
Ни одного трека нет в базе AccurateRip
Конец отчёта
==== Контрольная сумма отчёта 75EC7343E45AB92E2D4447CA823A280154C1A2484170912D3C931026A5A20DA6 ====
Код:
REM GENRE Industrial
REM DATE 2011
REM DISCID EE111710
REM COMMENT "ExactAudioCopy v1.0b3"
PERFORMER "Acylum"
TITLE "Karzinom  (CD 1)"
FILE "Acylum - Karzinom  (CD 1).flac" WAVE
  TRACK 01 AUDIO
    TITLE "Haus Am See"
    PERFORMER "Acylum"
    INDEX 01 00:00:00
  TRACK 02 AUDIO
    TITLE "Shoot Em Up"
    PERFORMER "Acylum"
    INDEX 01 04:58:63
  TRACK 03 AUDIO
    TITLE "Sweat Cunt"
    PERFORMER "Acylum"
    INDEX 01 08:56:65
  TRACK 04 AUDIO
    TITLE "Angel"
    PERFORMER "Acylum"
    INDEX 01 14:00:61
  TRACK 05 AUDIO
    TITLE "Question"
    PERFORMER "Acylum"
    INDEX 01 19:15:61
  TRACK 06 AUDIO
    TITLE "Freeze"
    PERFORMER "Acylum"
    INDEX 01 24:16:29
  TRACK 07 AUDIO
    TITLE "Deathzone"
    PERFORMER "Acylum"
    INDEX 01 29:24:31
  TRACK 08 AUDIO
    TITLE "Flatliners"
    PERFORMER "Acylum"
    INDEX 01 34:09:08
  TRACK 09 AUDIO
    TITLE "Deutsch"
    PERFORMER "Acylum"
    INDEX 01 39:04:55
  TRACK 10 AUDIO
    TITLE "King Acylum"
    PERFORMER "Acylum"
    INDEX 01 43:17:10
  TRACK 11 AUDIO
    TITLE "Silence"
    PERFORMER "Acylum"
    INDEX 01 48:21:53
  TRACK 12 AUDIO
    TITLE "Spit On You Grave"
    PERFORMER "Acylum"
    INDEX 01 52:21:01
  TRACK 13 AUDIO
    TITLE "Freeze (Haushetaere Version)"
    PERFORMER "Acylum"
    INDEX 01 57:21:37
  TRACK 14 AUDIO
    TITLE "Question (Amgod Remix)"
    PERFORMER "Acylum"
    INDEX 01 61:26:35
  TRACK 15 AUDIO
    TITLE "Silence (Reaxion Guerrilla Remix)"
    PERFORMER "Acylum"
    INDEX 01 66:30:19
  TRACK 16 AUDIO
    TITLE "In Memory"
    PERFORMER "Acylum"
    INDEX 01 70:17:60
Код:
REM GENRE Industrial
REM DATE 2011
REM DISCID D010270E
REM COMMENT "ExactAudioCopy v1.0b3"
PERFORMER "Acylum"
TITLE "Karzinom (CD 2)"
FILE "Acylum - Karzinom (CD 2).flac" WAVE
  TRACK 01 AUDIO
    TITLE "Your Pain V.2.0"
    PERFORMER "Acylum"
    INDEX 01 00:00:00
  TRACK 02 AUDIO
    TITLE "Trip Of Hate"
    PERFORMER "Acylum"
    INDEX 01 05:15:45
  TRACK 03 AUDIO
    TITLE "Black Virus"
    PERFORMER "Acylum"
    INDEX 01 09:56:06
  TRACK 04 AUDIO
    TITLE "Final Shot"
    PERFORMER "Acylum"
    INDEX 01 14:31:63
  TRACK 05 AUDIO
    TITLE "Black Death"
    PERFORMER "Acylum"
    INDEX 01 19:22:52
  TRACK 06 AUDIO
    TITLE "Your Pain"
    PERFORMER "Acylum"
    INDEX 01 26:48:18
  TRACK 07 AUDIO
    TITLE "War"
    PERFORMER "Acylum"
    INDEX 01 32:14:36
  TRACK 08 AUDIO
    TITLE "Fear"
    PERFORMER "Acylum"
    INDEX 01 36:54:00
  TRACK 09 AUDIO
    TITLE "Der Kampf"
    PERFORMER "Acylum"
    INDEX 01 41:32:18
  TRACK 10 AUDIO
    TITLE "My Pressure Is Hate"
    PERFORMER "Acylum"
    INDEX 01 45:44:69
  TRACK 11 AUDIO
    TITLE "Your Pain V.2.0 (Vault-113 Remix)"
    PERFORMER "Acylum"
    INDEX 01 50:05:68
  TRACK 12 AUDIO
    TITLE "Shoot Em Up (Betamorphose Remix)"
    PERFORMER "Acylum"
    INDEX 01 54:57:71
  TRACK 13 AUDIO
    TITLE "Your Pain V.2.0 (Ethan Fawkes Remix)"
    PERFORMER "Acylum"
    INDEX 01 58:55:68
  TRACK 14 AUDIO
    TITLE "Question (Distorted Memory Remix)"
    PERFORMER "Acylum"
    INDEX 01 63:59:71



[/pre]


Правила, инструкции, FAQ!!!
Торрент  Добавлен [26 июн 2020, 20:54] Скачать торрент Магнет ссылка
Скачать торрент
[ Размер 20.69 КБ / Просмотров 11 ]

Статус
Проверен 
 
Размер  988.77 МБ
Приватный: Нет (DHT включён)
.torrent скачан  1
 


     Отправить личное сообщение
   
Страница 1 из 1
Показать сообщения за:  Поле сортировки  
Начать новую тему Ответить на тему


Сейчас этот форум просматривают: нет зарегистрированных пользователей и гости: 0


Вы не можете начинать темы
Вы не можете отвечать на сообщения
Вы не можете редактировать свои сообщения
Вы не можете удалять свои сообщения
Вы не можете добавлять вложения

Перейти:  
cron