Начать новую тему Ответить на тему
Статистика раздачи
Размер: 113.01 МБ | Добавлен: 26 июн 2020, 20:22 | Скачали: 0
Сидеров: 0  [0 байт/сек]    Личеров: 0  [0 байт/сек]
Пред. тема | След. тема 

Автор
Сообщение

СообщениеДобавлено: 26 июн 2020, 20:22 

Ответить с цитатой 

The .Invalid / Adrift [EP]
Жанр: EBM / Industrial / Dub
Носитель: WEB
Год издания: 2017
Страна исполнителя (группы): Scotland
Аудиокодек: FLAC (*.flac)
Тип рипа: tracks
Битрейт аудио: lossless
Продолжительность: 00:20:26
Источник: авторская раздача
Источник (релизер): https://theinvalid.bandcamp.com/
Tracklist:
01 Drift (2:30)
02 Artificial Heart (4:18)
03 Blood (1:00)
04 CCCCCOMBO BREAKER (1:38)
05 Longing (5:44)
06 Dread (1:58)
07 Ghosts (3:18)
Код:
Lossless Audio Checker 2.0.7 logfile from Saturday 16 February 2019 08:14:41 AM
File:   O:\!     TORRENT\The .invalid (2017) Adrift\05 Longing.flac
Result: Clean
File:   O:\!     TORRENT\The .invalid (2017) Adrift\06 Dread.flac
Result: Clean
File:   O:\!     TORRENT\The .invalid (2017) Adrift\01 Drift.flac
Result: Clean
File:   O:\!     TORRENT\The .invalid (2017) Adrift\02 Artificial Heart.flac
Result: Clean
File:   O:\!     TORRENT\The .invalid (2017) Adrift\03 Blood.flac
Result: Clean
File:   O:\!     TORRENT\The .invalid (2017) Adrift\04 CCCCCOMBO BREAKER.flac
Result: Clean



Код:
foobar2000 1.4.1 / Dynamic Range Meter 1.1.1
log date: 2019-02-16 08:29:34
--------------------------------------------------------------------------------
Analyzed: The Invalid / Adrift
--------------------------------------------------------------------------------
DR         Peak         RMS     Duration Track
--------------------------------------------------------------------------------
DR6       -0.20 dB    -8.69 dB      2:30 01-Drift
DR7       -0.06 dB    -7.89 dB      4:18 02-Artificial Heart
DR6       -0.20 dB    -7.81 dB      1:00 03-Blood
DR7       -0.20 dB   -10.67 dB      1:38 04-CCCCCOMBO BREAKER
DR5       -0.20 dB    -7.09 dB      5:44 05-Longing
DR6       -0.20 dB    -7.73 dB      1:58 06-Dread
--------------------------------------------------------------------------------
Number of tracks:  6
Official DR value: DR6
Samplerate:        44100 Hz
Channels:          2
Bits per sample:   16
Bitrate:           843 kbps
Codec:             FLAC
================================================================================
enjoy
Правила, инструкции, FAQ!!!
Торрент  Добавлен [26 июн 2020, 20:22] Скачать торрент Магнет ссылка
Скачать торрент
[ Размер 18.38 КБ / Просмотров 9 ]

Статус
Проверен 
 
Размер  113.01 МБ
Приватный: Нет (DHT включён)
.torrent скачан  0
 


     Отправить личное сообщение
   
Страница 1 из 1
Показать сообщения за:  Поле сортировки  
Начать новую тему Ответить на тему


Сейчас этот форум просматривают: нет зарегистрированных пользователей и гости: 0


Вы не можете начинать темы
Вы не можете отвечать на сообщения
Вы не можете редактировать свои сообщения
Вы не можете удалять свои сообщения
Вы не можете добавлять вложения

Перейти:  
cron