Начать новую тему Ответить на тему
Статистика раздачи
Размер: 396.99 МБ | Добавлен: 26 июн 2020, 17:21 | Скачали: 0
Сидеров: 0  [0 байт/сек]    Личеров: 0  [0 байт/сек]
Пред. тема | След. тема 

Автор
Сообщение

СообщениеДобавлено: 26 июн 2020, 17:21 

Ответить с цитатой 

Rx - Dubs
Жанр: EBM / Industrial / Dub
Год выпуска диска: 2006
Производитель диска: Underground, Inc.
Аудио кодек: FLAC
Тип рипа: tracks+.cue
Битрейт аудио: lossless
Продолжительность: 58:51
Релиз: centrebullet (what.cd)
Трэклист:
01. Exfoliate (Order of Death Mix 1) (4:51)
02. Downtown (Happy Again Dub) (6:27)
03. Exfoliate (Sparce Mix) (5:57)
04. Idle Contact (Twitch Scratch Mix) (8:38)
05. K Y Re:amin Dub (6:53)
06. Reuptake (Synth & Drums Mix) Instrumental (3:45)
07. And When (Are You Home, Are You There Mix) (5:06)
08. Imago (Drums and Vocals Up Mix) (8:02)
09. For Dusts and Mists (Hero + Sedu) (9:13)
Код:
X Lossless Decoder version 20100518 (120.3)
XLD extraction logfile from 2010-06-06 15:21:46 -0400
Rx / Dubs
Used drive : MATSHITA DVD-R   UJ-868 (revision KB19)
Use cdparanoia mode     : YES (CDParanoia III 10.2 engine)
Disable audio cache     : OK for the drive with cache less than 2750KB
Make use of C2 pointers : NO
Read offset correction  : 102
Max retry count         : 100
TOC of the extracted CD
     Track |   Start  |  Length  | Start sector | End sector
    ---------------------------------------------------------
        1  | 00:00:00 | 04:50:72 |         0    |    21821
        2  | 04:50:72 | 06:27:19 |     21822    |    50865
        3  | 11:18:16 | 05:56:54 |     50866    |    77619
        4  | 17:14:70 | 08:38:10 |     77620    |   116479
        5  | 25:53:05 | 06:53:33 |    116480    |   147487
        6  | 32:46:38 | 03:44:46 |    147488    |   164333
        7  | 36:31:09 | 05:05:41 |    164334    |   187249
        8  | 41:36:50 | 08:01:57 |    187250    |   223381
        9  | 49:38:32 | 09:12:71 |    223382    |   264852
Track 01
    Filename : /Users/marsgrl23/Music/XLD/Rx - 2006 - Dubs/01 - Exfoliate (Order of Death Mix 1).flac
    Pre-gap length : 00:02:00
    CRC32 hash (test run)  : B96923D2
    CRC32 hash             : B96923D2
    CRC32 hash (skip zero) : 103113F2
    AccurateRip signature  : D55BE65E
        ->Accurately ripped! (confidence 3)
    Statistics
        Read error                           : 0
        Skipped (treated as error)           : 0
        Edge jitter error (maybe fixed)      : 0
        Atom jitter error (maybe fixed)      : 0
        Drift error (maybe fixed)            : 0
        Dropped bytes error (maybe fixed)    : 0
        Duplicated bytes error (maybe fixed) : 0
        Inconsistency in error sectors       : 0
Track 02
    Filename : /Users/marsgrl23/Music/XLD/Rx - 2006 - Dubs/02 - Downtown (Happy Again Dub).flac
    CRC32 hash (test run)  : D5AFD13D
    CRC32 hash             : D5AFD13D
    CRC32 hash (skip zero) : 17F89B6F
    AccurateRip signature  : B3E4F175
        ->Accurately ripped! (confidence 3)
    Statistics
        Read error                           : 0
        Skipped (treated as error)           : 0
        Edge jitter error (maybe fixed)      : 1
        Atom jitter error (maybe fixed)      : 0
        Drift error (maybe fixed)            : 0
        Dropped bytes error (maybe fixed)    : 1
        Duplicated bytes error (maybe fixed) : 0
        Inconsistency in error sectors       : 0
Track 03
    Filename : /Users/marsgrl23/Music/XLD/Rx - 2006 - Dubs/03 - Exfoliate (Sparce Mix).flac
    CRC32 hash (test run)  : 66F0CE02
    CRC32 hash             : 66F0CE02
    CRC32 hash (skip zero) : 21B04E9B
    AccurateRip signature  : 8A4D4D42
        ->Accurately ripped! (confidence 3)
    Statistics
        Read error                           : 0
        Skipped (treated as error)           : 0
        Edge jitter error (maybe fixed)      : 0
        Atom jitter error (maybe fixed)      : 0
        Drift error (maybe fixed)            : 0
        Dropped bytes error (maybe fixed)    : 0
        Duplicated bytes error (maybe fixed) : 0
        Inconsistency in error sectors       : 0
Track 04
    Filename : /Users/marsgrl23/Music/XLD/Rx - 2006 - Dubs/04 - Idle Contact (Twitch Scratch Mix).flac
    CRC32 hash (test run)  : E82C4E98
    CRC32 hash             : E82C4E98
    CRC32 hash (skip zero) : 861EC967
    AccurateRip signature  : 18688C5F
        ->Accurately ripped! (confidence 3)
    Statistics
        Read error                           : 0
        Skipped (treated as error)           : 0
        Edge jitter error (maybe fixed)      : 0
        Atom jitter error (maybe fixed)      : 0
        Drift error (maybe fixed)            : 0
        Dropped bytes error (maybe fixed)    : 0
        Duplicated bytes error (maybe fixed) : 0
        Inconsistency in error sectors       : 0
Track 05
    Filename : /Users/marsgrl23/Music/XLD/Rx - 2006 - Dubs/05 - K Y Reпјљamin Dub.flac
    CRC32 hash (test run)  : 964CC869
    CRC32 hash             : 964CC869
    CRC32 hash (skip zero) : 85915464
    AccurateRip signature  : ACE67185
        ->Accurately ripped! (confidence 3)
    Statistics
        Read error                           : 0
        Skipped (treated as error)           : 0
        Edge jitter error (maybe fixed)      : 0
        Atom jitter error (maybe fixed)      : 0
        Drift error (maybe fixed)            : 0
        Dropped bytes error (maybe fixed)    : 0
        Duplicated bytes error (maybe fixed) : 0
        Inconsistency in error sectors       : 0
Track 06
    Filename : /Users/marsgrl23/Music/XLD/Rx - 2006 - Dubs/06 - Reuptake (Synth & Drums Mix) Instrumental.flac
    CRC32 hash (test run)  : 961A07B7
    CRC32 hash             : 961A07B7
    CRC32 hash (skip zero) : 08F5593D
    AccurateRip signature  : F047A672
        ->Accurately ripped! (confidence 3)
    Statistics
        Read error                           : 0
        Skipped (treated as error)           : 0
        Edge jitter error (maybe fixed)      : 0
        Atom jitter error (maybe fixed)      : 0
        Drift error (maybe fixed)            : 0
        Dropped bytes error (maybe fixed)    : 0
        Duplicated bytes error (maybe fixed) : 0
        Inconsistency in error sectors       : 0
Track 07
    Filename : /Users/marsgrl23/Music/XLD/Rx - 2006 - Dubs/07 - And When (Are You Home, Are You There Mix).flac
    CRC32 hash (test run)  : 0AF1F00A
    CRC32 hash             : 0AF1F00A
    CRC32 hash (skip zero) : D5BA9B7A
    AccurateRip signature  : 895BD15F
        ->Accurately ripped! (confidence 3)
    Statistics
        Read error                           : 0
        Skipped (treated as error)           : 0
        Edge jitter error (maybe fixed)      : 0
        Atom jitter error (maybe fixed)      : 0
        Drift error (maybe fixed)            : 0
        Dropped bytes error (maybe fixed)    : 0
        Duplicated bytes error (maybe fixed) : 0
        Inconsistency in error sectors       : 0
Track 08
    Filename : /Users/marsgrl23/Music/XLD/Rx - 2006 - Dubs/08 - Imago (Drums and Vocals Up Mix).flac
    CRC32 hash (test run)  : 96530D3E
    CRC32 hash             : 96530D3E
    CRC32 hash (skip zero) : D13B4959
    AccurateRip signature  : D1249ED2
        ->Accurately ripped! (confidence 3)
    Statistics
        Read error                           : 0
        Skipped (treated as error)           : 0
        Edge jitter error (maybe fixed)      : 0
        Atom jitter error (maybe fixed)      : 0
        Drift error (maybe fixed)            : 0
        Dropped bytes error (maybe fixed)    : 0
        Duplicated bytes error (maybe fixed) : 0
        Inconsistency in error sectors       : 0
Track 09
    Filename : /Users/marsgrl23/Music/XLD/Rx - 2006 - Dubs/09 - For Dusts and Mists (Hero + Sedu).flac
    CRC32 hash (test run)  : 6D6BB55F
    CRC32 hash             : 6D6BB55F
    CRC32 hash (skip zero) : 2CDD9EFB
    AccurateRip signature  : D6CC0F81
        ->Accurately ripped! (confidence 3)
    Statistics
        Read error                           : 0
        Skipped (treated as error)           : 0
        Edge jitter error (maybe fixed)      : 0
        Atom jitter error (maybe fixed)      : 0
        Drift error (maybe fixed)            : 0
        Dropped bytes error (maybe fixed)    : 0
        Duplicated bytes error (maybe fixed) : 0
        Inconsistency in error sectors       : 0
No errors occurred
End of status report
Код:
TITLE "Dubs"
PERFORMER "Rx"
REM GENRE "Industrial"
REM DATE 2006
REM DISCID 880DCB09
FILE "01 - Exfoliate (Order of Death Mix 1).wav" WAVE
  TRACK 01 AUDIO
    TITLE "Exfoliate (Order of Death Mix 1)"
    PERFORMER "Rx"
    INDEX 01 00:00:00
FILE "02 - Downtown (Happy Again Dub).wav" WAVE
  TRACK 02 AUDIO
    TITLE "Downtown (Happy Again Dub)"
    PERFORMER "Rx"
    INDEX 01 00:00:00
FILE "03 - Exfoliate (Sparce Mix).wav" WAVE
  TRACK 03 AUDIO
    TITLE "Exfoliate (Sparce Mix)"
    PERFORMER "Rx"
    INDEX 01 00:00:00
FILE "04 - Idle Contact (Twitch Scratch Mix).wav" WAVE
  TRACK 04 AUDIO
    TITLE "Idle Contact (Twitch Scratch Mix)"
    PERFORMER "Rx"
    INDEX 01 00:00:00
FILE "05 - K Y Reпјљamin Dub.wav" WAVE
  TRACK 05 AUDIO
    TITLE "K Y Re:amin Dub"
    PERFORMER "Rx"
    INDEX 01 00:00:00
FILE "06 - Reuptake (Synth & Drums Mix) Instrumental.wav" WAVE
  TRACK 06 AUDIO
    TITLE "Reuptake (Synth & Drums Mix) Instrumental"
    PERFORMER "Rx"
    INDEX 01 00:00:00
FILE "07 - And When (Are You Home, Are You There Mix).wav" WAVE
  TRACK 07 AUDIO
    TITLE "And When (Are You Home, Are You There Mix)"
    PERFORMER "Rx"
    INDEX 01 00:00:00
FILE "08 - Imago (Drums and Vocals Up Mix).wav" WAVE
  TRACK 08 AUDIO
    TITLE "Imago (Drums and Vocals Up Mix)"
    PERFORMER "Rx"
    INDEX 01 00:00:00
FILE "09 - For Dusts and Mists (Hero + Sedu).wav" WAVE
  TRACK 09 AUDIO
    TITLE "For Dusts and Mists (Hero + Sedu)"
    PERFORMER "Rx"
    INDEX 01 00:00:00

Uploaded with ImageShack.us
Правила, инструкции, FAQ!!!
Торрент  Добавлен [26 июн 2020, 17:21] Скачать торрент Магнет ссылка
Скачать торрент
[ Размер 16.71 КБ / Просмотров 12 ]

Статус
Проверен 
 
Размер  396.99 МБ
Приватный: Нет (DHT включён)
.torrent скачан  0
 


     Отправить личное сообщение
   
Страница 1 из 1
Показать сообщения за:  Поле сортировки  
Начать новую тему Ответить на тему


Сейчас этот форум просматривают: нет зарегистрированных пользователей и гости: 0


Вы не можете начинать темы
Вы не можете отвечать на сообщения
Вы не можете редактировать свои сообщения
Вы не можете удалять свои сообщения
Вы не можете добавлять вложения

Перейти:  
cron