Начать новую тему Ответить на тему
Статистика раздачи
Размер: 383.76 МБ | Добавлен: 26 июн 2020, 20:30 | Скачали: 0
Сидеров: 0  [0 байт/сек]    Личеров: 0  [0 байт/сек]
Пред. тема | След. тема 

Автор
Сообщение

СообщениеДобавлено: 26 июн 2020, 20:30 

Ответить с цитатой 

Download - Microscopic
Жанр: EBM, Industrial
Год выпуска диска: 1996
Производитель диска: US
Аудио кодек: FLAC
Тип рипа: image+.cue
Битрейт аудио: lossless
Продолжительность: 54min 24sek
Трэклист:
1. Omniman (Remix) (06.05)
2. Attalal (Remixed by Biosphere) (07.17)
3. Mothersonne (Remixed by Newt) (06.35)
4. Noh Mans Land v (07.41)
5. Microscopic (06.25)
6. Noh Mans Visit (06.43)
7. Energy Plan (12.35)
8. Papa Papa Mula cmv (00.58)
Доп. информация: Диск из личной коллекции
Exact Audio Copy V0.99 prebeta 5 from 4. May 2009
Отчёт EAC об извлечении, выполненном 5. сентября 2009, 22:21
Download / Microscopic
Дисковод: TSSTcorpCD/DVDW SH-S182M Adapter: 0 ID: 0
Режим чтения : Достоверность
Использование точного потока : Да
Отключение кэша аудио : Да
Использование указателей C2 : Нет
Коррекция смещения при чтении : 6
Способность читать области Lead-in и Lead-out : Нет
Заполнение пропущенных сэмплов тишиной : Да
Удаление блоков с тишиной в начале и конце : Нет
При вычислениях CRC использовались нулевые сэмплы : Да
Интерфейс : Встроенный Win32-интерфейс для Win NT/2000
Выходной формат : Пользовательский кодировщик
Выбранный битрейт : 768 kBit/s
Качество : Высокий
Добавление ID3-тэга : Нет
Утилита сжатия : C:\Program Files\Exact Audio Copy\FLAC\FLAC.EXE
Дополнительные параметры : -6 -V -T "ARTIST=%a" -T "TITLE=%t" -T "ALBUM=%g" -T "DATE=%y" -T "TRACKNUMBER=%n" -T "GENRE=%m" -T "COMMENT=%e" %s -o %d
TOC извлечённого CD
Трек | Старт | Длительность | Начальный сектор | Конечный сектор
---------------------------------------------------------------------
1 | 0:00.00 | 6:05.20 | 0 | 27394
2 | 6:05.20 | 7:17.55 | 27395 | 60224
3 | 13:23.00 | 6:35.54 | 60225 | 89903
4 | 19:58.54 | 7:41.18 | 89904 | 124496
5 | 27:39.72 | 6:25.08 | 124497 | 153379
6 | 34:05.05 | 6:43.35 | 153380 | 183639
7 | 40:48.40 | 12:35.27 | 183640 | 240291
8 | 53:23.67 | 0:58.40 | 240292 | 244681
Характеристики диапазона извлечения и сообщения об ошибках
Выбранный диапазон
Имя файла I:\Моя музыка\v set\1996 Download Microscopic\Download - Microscopic.wav
Пиковый уровень 100.0 %
Качество диапазона 99.9 %
CRC теста 2EE6AA12
CRC копии 2EE6AA12
Копирование... OK
Ошибок не произошло
AccurateRip: сводка
Трек 1 точное извлечение (доверие 20) [47A79727]
Трек 2 точное извлечение (доверие 21) [84C66434]
Трек 3 точное извлечение (доверие 21) [940AC2EB]
Трек 4 точное извлечение (доверие 21) [1CF315E4]
Трек 5 точное извлечение (доверие 21) [6DB51BDE]
Трек 6 точное извлечение (доверие 21) [99C3186A]
Трек 7 точное извлечение (доверие 20) [175CA241]
Трек 8 точное извлечение (доверие 20) [00C7F61F]
Все треки извлечены точно
Конец отчёта
Правила, инструкции, FAQ!!!
Торрент  Добавлен [26 июн 2020, 20:30] Скачать торрент Магнет ссылка
Скачать торрент
[ Размер 15.93 КБ / Просмотров 7 ]

Статус
Проверен 
 
Размер  383.76 МБ
Приватный: Нет (DHT включён)
.torrent скачан  0
 


     Отправить личное сообщение
   
Страница 1 из 1
Показать сообщения за:  Поле сортировки  
Начать новую тему Ответить на тему


Сейчас этот форум просматривают: нет зарегистрированных пользователей и гости: 0


Вы не можете начинать темы
Вы не можете отвечать на сообщения
Вы не можете редактировать свои сообщения
Вы не можете удалять свои сообщения
Вы не можете добавлять вложения

Перейти:  
cron