Начать новую тему Ответить на тему
Статистика раздачи
Размер: 552.19 МБ | Добавлен: 26 июн 2020, 17:10 | Скачали: 0
Сидеров: 0  [0 байт/сек]    Личеров: 0  [0 байт/сек]
Пред. тема | След. тема 

Автор
Сообщение

СообщениеДобавлено: 26 июн 2020, 17:10 

Ответить с цитатой 

Dolls Of Pain / Cybersex
Жанр: EBM, Industrial
Страна-производитель диска: France
Год издания диска: 2009
Издатель (лейбл): Auto-Restriction Production, Urgence Disk Record
Номер по каталогу: ARP 002, Kab 080
Страна: France
Аудио кодек: FLAC (*.flac)
Тип рипа: tracks+.cue
Битрейт аудио: lossless
Продолжительность: 72:52
Источник (релизер): CD-R
Наличие сканов в содержимом раздачи: нет
Треклист:
1 The Black Room 5:51
2 Sweet Android 5:02
3 Nothing 5:18
4 Cybersex 5:04
5 Crazy 1:57
6 Liberate Me 4:53
7 Slow Motion 5:30
8 In My Ropes 5:20
9 I Continue 4:47
10 Addiction 3:44
11 Lobotomy 3:17
12 Liberate Me (Blutengel Remix Feat Chris Pohl) 5:42
13 Cybersex (Leæther Strip Remix) 6:55
14 I Continue (BakXIII Remix) 3:35
15 Liberate Me (Alien Produkt Remix) 5:56
Код:
Exact Audio Copy V0.99 prebeta 5 from 4. May 2009
EAC extraction logfile from 12. December 2010, 9:52
Dolls Of Pain / Cybersex
Used drive  : PIONEER DVD-RW  DVR-216D   Adapter: 0  ID: 0
Read mode               : Secure
Utilize accurate stream : Yes
Defeat audio cache      : Yes
Make use of C2 pointers : No
Read offset correction                      : 96
Overread into Lead-In and Lead-Out          : No
Fill up missing offset samples with silence : Yes
Delete leading and trailing silent blocks   : No
Null samples used in CRC calculations       : Yes
Used interface                              : Native Win32 interface for Win NT & 2000
Gap handling                                : Appended to previous track
Used output format              : User Defined Encoder
Selected bitrate                : 1024 kBit/s
Quality                         : High
Add ID3 tag                     : No
Command line compressor         : C:\Program Files (x86)\Exact Audio Copy\Flac\flac.exe
Additional command line options : -8 -V -T "ARTIST=%a" -T "TITLE=%t" -T "ALBUM=%g" -T "DATE=%y" -T "TRACKNUMBER=%n" -T "GENRE=%m" -T "COMMENT=EAC FLAC -8" %s
TOC of the extracted CD
     Track |   Start  |  Length  | Start sector | End sector
    ---------------------------------------------------------
        1  |  0:00.00 |  5:50.40 |         0    |    26289
        2  |  5:50.40 |  5:02.06 |     26290    |    48945
        3  | 10:52.46 |  5:18.12 |     48946    |    72807
        4  | 16:10.58 |  5:04.09 |     72808    |    95616
        5  | 21:14.67 |  1:57.33 |     95617    |   104424
        6  | 23:12.25 |  4:53.06 |    104425    |   126405
        7  | 28:05.31 |  5:30.07 |    126406    |   151162
        8  | 33:35.38 |  5:20.19 |    151163    |   175181
        9  | 38:55.57 |  4:47.04 |    175182    |   196710
       10  | 43:42.61 |  3:44.07 |    196711    |   213517
       11  | 47:26.68 |  3:17.10 |    213518    |   228302
       12  | 50:44.03 |  5:41.39 |    228303    |   253916
       13  | 56:25.42 |  6:54.43 |    253917    |   285009
       14  | 63:20.10 |  3:35.33 |    285010    |   301167
       15  | 66:55.43 |  5:55.64 |    301168    |   327856
Track  1
     Filename I:\Audio\TORRENTS\Dolls Of Pain\tracks\ 01. Dolls Of Pain – The Black Room.wav
     Pre-gap length  0:00:02.00
     Peak level 100.0 %
     Track quality 100.0 %
     Test CRC E2A68235
     Copy CRC E2A68235
     Cannot be verified as accurate (confidence 1)  [D07CD14B], AccurateRip returned [0BA48B81]
     Copy OK
Track  2
     Filename I:\Audio\TORRENTS\Dolls Of Pain\tracks\ 02. Dolls Of Pain – Sweet Android.wav
     Peak level 100.0 %
     Track quality 100.0 %
     Test CRC 74ABE80C
     Copy CRC 74ABE80C
     Cannot be verified as accurate (confidence 1)  [E61AEF57], AccurateRip returned [DB8989C1]
     Copy OK
Track  3
     Filename I:\Audio\TORRENTS\Dolls Of Pain\tracks\ 03. Dolls Of Pain – Nothing.wav
     Peak level 100.0 %
     Track quality 100.0 %
     Test CRC 84520EB0
     Copy CRC 84520EB0
     Cannot be verified as accurate (confidence 1)  [97C83490], AccurateRip returned [F38DE1B0]
     Copy OK
Track  4
     Filename I:\Audio\TORRENTS\Dolls Of Pain\tracks\ 04. Dolls Of Pain – Cybersex.wav
     Peak level 100.0 %
     Track quality 100.0 %
     Test CRC 63154C30
     Copy CRC 63154C30
     Cannot be verified as accurate (confidence 1)  [2D53B619], AccurateRip returned [9052EFC9]
     Copy OK
Track  5
     Filename I:\Audio\TORRENTS\Dolls Of Pain\tracks\ 05. Dolls Of Pain – Crazy.wav
     Peak level 100.0 %
     Track quality 100.0 %
     Test CRC 1F87ED27
     Copy CRC 1F87ED27
     Cannot be verified as accurate (confidence 1)  [16F39A2E], AccurateRip returned [52C37EFE]
     Copy OK
Track  6
     Filename I:\Audio\TORRENTS\Dolls Of Pain\tracks\ 06. Dolls Of Pain – Liberate Me.wav
     Peak level 100.0 %
     Track quality 100.0 %
     Test CRC 9AA6DBA5
     Copy CRC 9AA6DBA5
     Cannot be verified as accurate (confidence 1)  [542216E9], AccurateRip returned [23CE485D]
     Copy OK
Track  7
     Filename I:\Audio\TORRENTS\Dolls Of Pain\tracks\ 07. Dolls Of Pain – Slow Motion.wav
     Peak level 100.0 %
     Track quality 100.0 %
     Test CRC 70F1B8C1
     Copy CRC 70F1B8C1
     Cannot be verified as accurate (confidence 1)  [CE3A44B3], AccurateRip returned [8A19C2E5]
     Copy OK
Track  8
     Filename I:\Audio\TORRENTS\Dolls Of Pain\tracks\ 08. Dolls Of Pain – In My Ropes.wav
     Peak level 100.0 %
     Track quality 100.0 %
     Test CRC 2F19DAFB
     Copy CRC 2F19DAFB
     Cannot be verified as accurate (confidence 1)  [D749361B], AccurateRip returned [844CBC5F]
     Copy OK
Track  9
     Filename I:\Audio\TORRENTS\Dolls Of Pain\tracks\ 09. Dolls Of Pain – I Continue.wav
     Peak level 100.0 %
     Track quality 100.0 %
     Test CRC CA0B3306
     Copy CRC CA0B3306
     Cannot be verified as accurate (confidence 1)  [F6EE3D6A], AccurateRip returned [85983EFC]
     Copy OK
Track 10
     Filename I:\Audio\TORRENTS\Dolls Of Pain\tracks\ 10. Dolls Of Pain – Addiction.wav
     Peak level 100.0 %
     Track quality 100.0 %
     Test CRC 7282761F
     Copy CRC 7282761F
     Cannot be verified as accurate (confidence 1)  [4B70EB0D], AccurateRip returned [169A1CD9]
     Copy OK
Track 11
     Filename I:\Audio\TORRENTS\Dolls Of Pain\tracks\ 11. Dolls Of Pain – Lobotomy.wav
     Peak level 100.0 %
     Track quality 100.0 %
     Test CRC 6B53ED85
     Copy CRC 6B53ED85
     Cannot be verified as accurate (confidence 1)  [B7137E6F], AccurateRip returned [1781670B]
     Copy OK
Track 12
     Filename I:\Audio\TORRENTS\Dolls Of Pain\tracks\ 12. Dolls Of Pain – Liberate Me (BlutEngel Remix).wav
     Peak level 100.0 %
     Track quality 100.0 %
     Test CRC D9935145
     Copy CRC D9935145
     Cannot be verified as accurate (confidence 1)  [730B7641], AccurateRip returned [65BA5E5F]
     Copy OK
Track 13
     Filename I:\Audio\TORRENTS\Dolls Of Pain\tracks\ 13. Dolls Of Pain – Cybersex (Leaether Strip Remix).wav
     Peak level 100.0 %
     Track quality 100.0 %
     Test CRC 322EEA6E
     Copy CRC 322EEA6E
     Cannot be verified as accurate (confidence 1)  [3FB7BE64], AccurateRip returned [A603EEA2]
     Copy OK
Track 14
     Filename I:\Audio\TORRENTS\Dolls Of Pain\tracks\ 14. Dolls Of Pain – I Continue (BakXIII Remix).wav
     Peak level 100.0 %
     Track quality 100.0 %
     Test CRC 7BA2FCBF
     Copy CRC 7BA2FCBF
     Cannot be verified as accurate (confidence 1)  [11D3B54A], AccurateRip returned [7CE5B074]
     Copy OK
Track 15
     Filename I:\Audio\TORRENTS\Dolls Of Pain\tracks\ 15. Dolls Of Pain – Liberate Me (Alien Produkt Remix).wav
     Peak level 100.0 %
     Track quality 100.0 %
     Test CRC EE150497
     Copy CRC EE150497
     Cannot be verified as accurate (confidence 1)  [D54D37CE], AccurateRip returned [FB73D74C]
     Copy OK
No tracks could be verified as accurate
You may have a different pressing from the one(s) in the database
No errors occurred
End of status report
Код:
REM GENRE Electronic
REM DATE 2009
REM DISCID DC11130F
REM COMMENT "ExactAudioCopy v0.99pb5"
PERFORMER "Dolls Of Pain"
TITLE "Cybersex"
FILE " 01. Dolls Of Pain – The Black Room.wav" WAVE
  TRACK 01 AUDIO
    TITLE "The Black Room"
    PERFORMER "Dolls Of Pain"
    INDEX 01 00:00:00
FILE " 02. Dolls Of Pain – Sweet Android.wav" WAVE
  TRACK 02 AUDIO
    TITLE "Sweet Android"
    PERFORMER "Dolls Of Pain"
    INDEX 01 00:00:00
FILE " 03. Dolls Of Pain – Nothing.wav" WAVE
  TRACK 03 AUDIO
    TITLE "Nothing"
    PERFORMER "Dolls Of Pain"
    INDEX 01 00:00:00
FILE " 04. Dolls Of Pain – Cybersex.wav" WAVE
  TRACK 04 AUDIO
    TITLE "Cybersex"
    PERFORMER "Dolls Of Pain"
    INDEX 01 00:00:00
FILE " 05. Dolls Of Pain – Crazy.wav" WAVE
  TRACK 05 AUDIO
    TITLE "Crazy"
    PERFORMER "Dolls Of Pain"
    INDEX 01 00:00:00
FILE " 06. Dolls Of Pain – Liberate Me.wav" WAVE
  TRACK 06 AUDIO
    TITLE "Liberate Me"
    PERFORMER "Dolls Of Pain"
    INDEX 01 00:00:00
FILE " 07. Dolls Of Pain – Slow Motion.wav" WAVE
  TRACK 07 AUDIO
    TITLE "Slow Motion"
    PERFORMER "Dolls Of Pain"
    INDEX 01 00:00:00
FILE " 08. Dolls Of Pain – In My Ropes.wav" WAVE
  TRACK 08 AUDIO
    TITLE "In My Ropes"
    PERFORMER "Dolls Of Pain"
    INDEX 01 00:00:00
FILE " 09. Dolls Of Pain – I Continue.wav" WAVE
  TRACK 09 AUDIO
    TITLE "I Continue"
    PERFORMER "Dolls Of Pain"
    INDEX 01 00:00:00
FILE " 10. Dolls Of Pain – Addiction.wav" WAVE
  TRACK 10 AUDIO
    TITLE "Addiction"
    PERFORMER "Dolls Of Pain"
    INDEX 01 00:00:00
FILE " 11. Dolls Of Pain – Lobotomy.wav" WAVE
  TRACK 11 AUDIO
    TITLE "Lobotomy"
    PERFORMER "Dolls Of Pain"
    INDEX 01 00:00:00
FILE " 12. Dolls Of Pain – Liberate Me (BlutEngel Remix).wav" WAVE
  TRACK 12 AUDIO
    TITLE "Liberate Me (BlutEngel Remix)"
    PERFORMER "Dolls Of Pain"
    INDEX 01 00:00:00
FILE " 13. Dolls Of Pain – Cybersex (Leaether Strip Remix).wav" WAVE
  TRACK 13 AUDIO
    TITLE "Cybersex (Leaether Strip Remix)"
    PERFORMER "Dolls Of Pain"
    INDEX 01 00:00:00
FILE " 14. Dolls Of Pain – I Continue (BakXIII Remix).wav" WAVE
  TRACK 14 AUDIO
    TITLE "I Continue (BakXIII Remix)"
    PERFORMER "Dolls Of Pain"
    INDEX 01 00:00:00
FILE " 15. Dolls Of Pain – Liberate Me (Alien Produkt Remix).wav" WAVE
  TRACK 15 AUDIO
    TITLE "Liberate Me (Alien Produkt Remix)"
    PERFORMER "Dolls Of Pain"
    INDEX 01 00:00:00
Код:
Started at: воскресенье, 12. 12. 2010. - 8:54.52
15 files found
01 -===- track 1 in drive PIONEER DVD-RW  DVR-216D
  Track ripped successfully
  Conclusion: this track is CDDA with probability 100%
  Tempfile successfully deleted.
02 -===- track 2 in drive PIONEER DVD-RW  DVR-216D
  Track ripped successfully
  Conclusion: this track is CDDA with probability 100%
  Tempfile successfully deleted.
03 -===- track 3 in drive PIONEER DVD-RW  DVR-216D
  Track ripped successfully
  Conclusion: could not qualify the source of this track
  Tempfile successfully deleted.
04 -===- track 4 in drive PIONEER DVD-RW  DVR-216D
  Track ripped successfully
  Conclusion: could not qualify the source of this track
  Tempfile successfully deleted.
05 -===- track 5 in drive PIONEER DVD-RW  DVR-216D
  Track ripped successfully
  Conclusion: this track is CDDA with probability 100%
  Tempfile successfully deleted.
06 -===- track 6 in drive PIONEER DVD-RW  DVR-216D
  Track ripped successfully
  Conclusion: could not qualify the source of this track
  Tempfile successfully deleted.
07 -===- track 7 in drive PIONEER DVD-RW  DVR-216D
  Track ripped successfully
  Conclusion: this track is CDDA with probability 100%
  Tempfile successfully deleted.
08 -===- track 8 in drive PIONEER DVD-RW  DVR-216D
  Track ripped successfully
  Conclusion: this track is CDDA with probability 100%
  Tempfile successfully deleted.
09 -===- track 9 in drive PIONEER DVD-RW  DVR-216D
  Track ripped successfully
  Conclusion: this track is CDDA with probability 100%
  Tempfile successfully deleted.
10 -===- track 10 in drive PIONEER DVD-RW  DVR-216D
  Track ripped successfully
  Conclusion: this track is MPEG with probability 79%
  Tempfile successfully deleted.
11 -===- track 11 in drive PIONEER DVD-RW  DVR-216D
  Track ripped successfully
  Conclusion: this track is CDDA with probability 100%
  Tempfile successfully deleted.
12 -===- track 12 in drive PIONEER DVD-RW  DVR-216D
  Track ripped successfully
  Conclusion: this track is MPEG with probability 79%
  Tempfile successfully deleted.
13 -===- track 13 in drive PIONEER DVD-RW  DVR-216D
  Track ripped successfully
  Conclusion: could not qualify the source of this track
  Tempfile successfully deleted.
14 -===- track 14 in drive PIONEER DVD-RW  DVR-216D
  Track ripped successfully
  Conclusion: this track is MPEG with probability 85%
  Tempfile successfully deleted.
15 -===- track 15 in drive PIONEER DVD-RW  DVR-216D
  Track ripped successfully
  Conclusion: this track is CDDA with probability 100%
  Tempfile successfully deleted.
Finished at: воскресенье, 12. 12. 2010. - 9:04.14 (operation time: 0:09.22)


Доп. информация: http://www.discogs.com/Dolls-Of-Pain-Cybersex/release/1745059
http://www.dollsofpain.com/
http://www.myspace.com/dollsofpain
Cédric Delabia, Laurent Collin, Olivier Delforge, Stéphane Nicolau
Правила, инструкции, FAQ!!!
Торрент  Добавлен [26 июн 2020, 17:10] Скачать торрент Магнет ссылка
Скачать торрент
[ Размер 13.01 КБ / Просмотров 3 ]

Статус
Проверен 
 
Размер  552.19 МБ
Приватный: Нет (DHT включён)
.torrent скачан  0
 


     Отправить личное сообщение
   
Страница 1 из 1
Показать сообщения за:  Поле сортировки  
Начать новую тему Ответить на тему


Сейчас этот форум просматривают: нет зарегистрированных пользователей и гости: 0


Вы не можете начинать темы
Вы не можете отвечать на сообщения
Вы не можете редактировать свои сообщения
Вы не можете удалять свои сообщения
Вы не можете добавлять вложения

Перейти:  
cron