Начать новую тему Ответить на тему
Статистика раздачи
Размер: 5.75 ГБ | Добавлен: 26 июн 2020, 17:37 | Скачали: 0
Сидеров: 0  [0 байт/сек]    Личеров: 0  [0 байт/сек]
Пред. тема | След. тема 

Автор
Сообщение

СообщениеДобавлено: 26 июн 2020, 17:37 

Ответить с цитатой 

Diverje / Discography
Жанр: EBM industrial
Страна-производитель диска: USA
Год издания диска: 1998-2010
Издатель (лейбл): DSBP Records
Аудио кодек: FLAC (*.flac)
Тип рипа: image+.cue
Битрейт аудио: lossless
Источник (релизер): Физический носитель
Наличие сканов в содержимом раздачи: да
#777Тип рипа: image+.cue
Битрейт аудио: lossless
Продолжительность: 1:12:54.53
Треклист:
01. Empty [3:49]
02. Scream For Me [4:25]
03. System Failed [3:27]
04. Existence [4:07]
05. Hard [3:19]
06. Self Denied [4:52]
07. Disconnect [3:03]
08. Nothing To Believe [4:02]
09. Bleeding [3:05]
10. Examine [3:03]
11. Mesmer [3:31]
12. Mesmer [2:37]
13. Unlisted Track [0:14]
14. Oucast (Biopsy rmx) [4:05]
15. Digitized (Biopsy rmx) [3:41]
16. To Hell (Razed In Black rmx) [4:30]
17. Body Worship (SMP rmx) [4:36]
18. Manipulate (Testube rmx) [4:15]
19. Tragic Lost (Matrix rmx) [3:30]
20. Existence (Noxious Emotion rmx) [4:43]
Код:
Exact Audio Copy V0.99 prebeta 5 from 4. May 2009
Отчёт EAC об извлечении, выполненном 16. января 2011, 11:13
Diverje / Existence / Program remix
Дисковод: Optiarc DVD RW AD-7173A   Adapter: 0  ID: 0
Режим чтения                 : Достоверность
Использование точного потока : Да
Отключение кэша аудио        : Да
Использование указателей C2  : Нет
Коррекция смещения при чтении                     : 48
Способность читать области Lead-in и Lead-out     : Нет
Заполнение пропущенных сэмплов тишиной            : Да
Удаление блоков с тишиной в начале и конце        : Нет
При вычислениях CRC использовались нулевые сэмплы : Да
Интерфейс                                         : Установленный внешний ASPI-интерфейс
Выходной формат          : Пользовательский кодировщик
Выбранный битрейт        : 1024 kBit/s
Качество                 : Высокий
Добавление ID3-тэга      : Нет
Утилита сжатия           : C:\Program Files\Exact Audio Copy\flac.exe
Дополнительные параметры : -6 -V -T "ARTIST=%a" -T "TITLE=%t" -T "ALBUM=%g" -T "DATE=%y" -T "TRACKNUMBER=%n" -T "GENRE=%m" -T "COMMENT=%e" %s -o %d
TOC извлечённого CD
     Трек |   Старт  | Длительность | Начальный сектор | Конечный сектор
    ---------------------------------------------------------------------
       1  |  0:00.00 |    3:48.61   |           0      |      17160
       2  |  3:48.61 |    4:24.55   |       17161      |      37015
       3  |  8:13.41 |    3:27.09   |       37016      |      52549
       4  | 11:40.50 |    4:07.04   |       52550      |      71078
       5  | 15:47.54 |    3:19.31   |       71079      |      86034
       6  | 19:07.10 |    4:52.16   |       86035      |     107950
       7  | 23:59.26 |    3:03.19   |      107951      |     121694
       8  | 27:02.45 |    4:02.19   |      121695      |     139863
       9  | 31:04.64 |    3:05.36   |      139864      |     153774
      10  | 34:10.25 |    3:02.40   |      153775      |     167464
      11  | 37:12.65 |    3:30.52   |      167465      |     183266
      12  | 40:43.42 |    2:37.10   |      183267      |     195051
      13  | 43:20.52 |    0:13.65   |      195052      |     196091
      14  | 43:34.42 |    4:05.10   |      196092      |     214476
      15  | 47:39.52 |    3:40.66   |      214477      |     231042
      16  | 51:20.43 |    4:29.63   |      231043      |     251280
      17  | 55:50.31 |    4:36.04   |      251281      |     271984
      18  | 60:26.35 |    4:15.29   |      271985      |     291138
      19  | 64:41.64 |    3:29.56   |      291139      |     306869
      20  | 68:11.45 |    4:43.08   |      306870      |     328102
Характеристики диапазона извлечения и сообщения об ошибках
Выбранный диапазон
     Имя файла H:\СКАЧКА\FLAC\1 TORRENT\Diverje - Existence. Program remix.wav
     Пиковый уровень 100.0 %
     Качество диапазона 99.9 %
     CRC теста B3F568A3
     CRC копии B3F568A3
     Копирование... OK
Ошибок не произошло
AccurateRip: сводка
Трек  1  нет в базе данных
Трек  2  нет в базе данных
Трек  3  нет в базе данных
Трек  4  нет в базе данных
Трек  5  нет в базе данных
Трек  6  нет в базе данных
Трек  7  нет в базе данных
Трек  8  нет в базе данных
Трек  9  нет в базе данных
Трек 10  нет в базе данных
Трек 11  нет в базе данных
Трек 12  нет в базе данных
Трек 13  нет в базе данных
Трек 14  нет в базе данных
Трек 15  нет в базе данных
Трек 16  нет в базе данных
Трек 17  нет в базе данных
Трек 18  нет в базе данных
Трек 19  нет в базе данных
Трек 20  нет в базе данных
Ни одного трека нет в базе AccurateRip
Конец отчёта
#777Тип рипа: image+.cue
Битрейт аудио: lossless
Продолжительность: 1:13:19.17
Треклист:
01. Regret [4:01]
02. Suspicion [4:40]
03. On Skin [4:58]
04. Stimulate [3:37]
05. Damaged [4:25]
06. In My Shell [5:58]
07. Structure [3:31]
08. Reject [3:30]
09. Cover Up (Vocal Strip Extendo) [5:17]
10. No Solution [3:27]
11. Pressure Lock [3:59]
12. Disconnect (Converter remix) [5:09]
13. Scream For Me (Ionic Mayhem At Maximum) [5:13]
14. Hiding (Cydonia remix) [5:44]
15. Disconnect (Pain Station remix) [5:32]
16. Mesmer (Thine Eyes / ML remix) [4:17]
Код:
Exact Audio Copy V0.99 prebeta 5 from 4. May 2009
Отчёт EAC об извлечении, выполненном 14. ноября 2010, 21:10
Diverje / On Skin
Дисковод: Optiarc DVD RW AD-7173A   Adapter: 0  ID: 0
Режим чтения                 : Достоверность
Использование точного потока : Да
Отключение кэша аудио        : Да
Использование указателей C2  : Нет
Коррекция смещения при чтении                     : 48
Способность читать области Lead-in и Lead-out     : Нет
Заполнение пропущенных сэмплов тишиной            : Да
Удаление блоков с тишиной в начале и конце        : Нет
При вычислениях CRC использовались нулевые сэмплы : Да
Интерфейс                                         : Установленный внешний ASPI-интерфейс
Выходной формат          : Пользовательский кодировщик
Выбранный битрейт        : 1024 kBit/s
Качество                 : Высокий
Добавление ID3-тэга      : Нет
Утилита сжатия           : C:\Program Files\Exact Audio Copy\flac.exe
Дополнительные параметры : -6 -V -T "ARTIST=%a" -T "TITLE=%t" -T "ALBUM=%g" -T "DATE=%y" -T "TRACKNUMBER=%n" -T "GENRE=%m" -T "COMMENT=%e" %s -o %d
TOC извлечённого CD
     Трек |   Старт  | Длительность | Начальный сектор | Конечный сектор
    ---------------------------------------------------------------------
       1  |  0:00.00 |    4:01.18   |           0      |      18092
       2  |  4:01.18 |    4:40.00   |       18093      |      39092
       3  |  8:41.18 |    4:58.28   |       39093      |      61470
       4  | 13:39.46 |    3:37.16   |       61471      |      77761
       5  | 17:16.62 |    4:25.00   |       77762      |      97636
       6  | 21:41.62 |    5:57.62   |       97637      |     124473
       7  | 27:39.49 |    3:30.48   |      124474      |     140271
       8  | 31:10.22 |    3:29.66   |      140272      |     156012
       9  | 34:40.13 |    5:17.17   |      156013      |     179804
      10  | 39:57.30 |    3:27.16   |      179805      |     195345
      11  | 43:24.46 |    3:59.35   |      195346      |     213305
      12  | 47:24.06 |    5:09.22   |      213306      |     236502
      13  | 52:33.28 |    5:12.72   |      236503      |     259974
      14  | 57:46.25 |    5:43.42   |      259975      |     285741
      15  | 63:29.67 |    5:32.28   |      285742      |     310669
      16  | 69:02.20 |    4:16.72   |      310670      |     329941
Характеристики диапазона извлечения и сообщения об ошибках
Выбранный диапазон
     Имя файла H:\СКАЧКА\FLAC\1 TORRENT\Diverje - On Skin.wav
     Пиковый уровень 100.0 %
     Качество диапазона 99.9 %
     CRC теста 9F231DD2
     CRC копии 9F231DD2
     Копирование... OK
Ошибок не произошло
AccurateRip: сводка
Трек  1  нет в базе данных
Трек  2  нет в базе данных
Трек  3  нет в базе данных
Трек  4  нет в базе данных
Трек  5  нет в базе данных
Трек  6  нет в базе данных
Трек  7  нет в базе данных
Трек  8  нет в базе данных
Трек  9  нет в базе данных
Трек 10  нет в базе данных
Трек 11  нет в базе данных
Трек 12  нет в базе данных
Трек 13  нет в базе данных
Трек 14  нет в базе данных
Трек 15  нет в базе данных
Трек 16  нет в базе данных
Ни одного трека нет в базе AccurateRip
Конец отчёта
#777Тип рипа: image+.cue
Битрейт аудио: lossless
Продолжительность Disc1: 1:11:16.66
Продолжительность Disc2: 1:13:48.38
Треклист:
Disc1
01. On Skin (Assemblage 23 remix) [6:00]
02. Regret (Liar's Rosebush remix) [4:19]
03. Stimulate (Idiot Stare remix) [4:29]
04. Reject (Control.org vs. C2 remix) [3:59]
05. Damaged (Count to Infinity remix) [4:23]
06. On Skin (Andrea Bellucci remix) [6:10]
07. Regret (Babel-17 remix) [5:00]
08. Reject (SMP vs. Static Engine remix) [3:50]
09. Damaged (Codec remix) [4:23]
10. On Skin (Spellcaster remix) [8:20]
11. Put the Flesh In (Testube remix) [3:10]
12. Stimulate (Headache remix) [3:35]
13. Damaged (DJ Riot remix) [4:07]
14. Reject (Babel-17 remix) [4:29]
15. Stimulate vs Regret (One Fine Manipulator remix) [5:03]
Disc2
01. Retaliate (Symbiont remix) [4:13]
02. Reject (MonstrumSepsis remix) [4:12]
03. Regret (ML remix) [4:52]
04. Retaliate (Moon Rock remix) [4:58]
05. On Skin (Xyn remix) [4:30]
06. Stimulate (WE V.2 remix) [6:38]
07. Reject (Liar's Rosebush remix) [5:10]
08. Retaliate (Stimulator remix) [4:25]
09. Planet Earth (Diverje remix) [2:53]
10. Reject (T.O.T.S. remix) [2:27]
11. On Skin (Babel-17 remix) [5:09]
12. Damaged (Da Riot Squad remix) [4:20]
13. Stimulate (N.N.M. remix) [4:49]
14. In My Shell (in_FUSED remix) [2:11]
15. Suspicion (Headache remix) [5:19]
16. Damaged (WE V.2 remix) [4:06]
17. Shivering Skies (9-11-01 remix) [3:39]
Код:
Exact Audio Copy V0.99 prebeta 5 from 4. May 2009
Отчёт EAC об извлечении, выполненном 14. ноября 2010, 14:59
Diverje / 2:40 AM
Дисковод: Optiarc DVD RW AD-7173A   Adapter: 0  ID: 0
Режим чтения                 : Достоверность
Использование точного потока : Да
Отключение кэша аудио        : Да
Использование указателей C2  : Нет
Коррекция смещения при чтении                     : 48
Способность читать области Lead-in и Lead-out     : Нет
Заполнение пропущенных сэмплов тишиной            : Да
Удаление блоков с тишиной в начале и конце        : Нет
При вычислениях CRC использовались нулевые сэмплы : Да
Интерфейс                                         : Установленный внешний ASPI-интерфейс
Выходной формат          : Пользовательский кодировщик
Выбранный битрейт        : 1024 kBit/s
Качество                 : Высокий
Добавление ID3-тэга      : Нет
Утилита сжатия           : C:\Program Files\Exact Audio Copy\flac.exe
Дополнительные параметры : -6 -V -T "ARTIST=%a" -T "TITLE=%t" -T "ALBUM=%g" -T "DATE=%y" -T "TRACKNUMBER=%n" -T "GENRE=%m" -T "COMMENT=%e" %s -o %d
TOC извлечённого CD
     Трек |   Старт  | Длительность | Начальный сектор | Конечный сектор
    ---------------------------------------------------------------------
       1  |  0:00.00 |    5:59.54   |           0      |      26978
       2  |  5:59.54 |    4:19.04   |       26979      |      46407
       3  | 10:18.58 |    4:29.23   |       46408      |      66605
       4  | 14:48.06 |    3:58.74   |       66606      |      84529
       5  | 18:47.05 |    4:22.41   |       84530      |     104220
       6  | 23:09.46 |    6:09.53   |      104221      |     131948
       7  | 29:19.24 |    5:00.26   |      131949      |     154474
       8  | 34:19.50 |    3:50.31   |      154475      |     171755
       9  | 38:10.06 |    4:23.26   |      171756      |     191506
      10  | 42:33.32 |    8:19.49   |      191507      |     228980
      11  | 50:53.06 |    3:09.68   |      228981      |     243223
      12  | 54:02.74 |    3:35.36   |      243224      |     259384
      13  | 57:38.35 |    4:06.62   |      259385      |     277896
      14  | 61:45.22 |    4:29.05   |      277897      |     298076
      15  | 66:14.27 |    5:02.39   |      298077      |     320765
Характеристики диапазона извлечения и сообщения об ошибках
Выбранный диапазон
     Имя файла H:\СКАЧКА\FLAC\1 TORRENT\Diverje - 2-40 AM.wav
     Пиковый уровень 100.0 %
     Качество диапазона 99.9 %
     CRC теста 6DC77B55
     CRC копии 6DC77B55
     Копирование... OK
Ошибок не произошло
AccurateRip: сводка
Трек  1  нет в базе данных
Трек  2  нет в базе данных
Трек  3  нет в базе данных
Трек  4  нет в базе данных
Трек  5  нет в базе данных
Трек  6  нет в базе данных
Трек  7  нет в базе данных
Трек  8  нет в базе данных
Трек  9  нет в базе данных
Трек 10  нет в базе данных
Трек 11  нет в базе данных
Трек 12  нет в базе данных
Трек 13  нет в базе данных
Трек 14  нет в базе данных
Трек 15  нет в базе данных
Ни одного трека нет в базе AccurateRip
Конец отчёта
Код:
Exact Audio Copy V0.99 prebeta 5 from 4. May 2009
Отчёт EAC об извлечении, выполненном 14. ноября 2010, 17:54
Diverje / 2:40 AM
Дисковод: Optiarc DVD RW AD-7173A   Adapter: 0  ID: 0
Режим чтения                 : Достоверность
Использование точного потока : Да
Отключение кэша аудио        : Да
Использование указателей C2  : Нет
Коррекция смещения при чтении                     : 48
Способность читать области Lead-in и Lead-out     : Нет
Заполнение пропущенных сэмплов тишиной            : Да
Удаление блоков с тишиной в начале и конце        : Нет
При вычислениях CRC использовались нулевые сэмплы : Да
Интерфейс                                         : Установленный внешний ASPI-интерфейс
Выходной формат          : Пользовательский кодировщик
Выбранный битрейт        : 1024 kBit/s
Качество                 : Высокий
Добавление ID3-тэга      : Нет
Утилита сжатия           : C:\Program Files\Exact Audio Copy\flac.exe
Дополнительные параметры : -6 -V -T "ARTIST=%a" -T "TITLE=%t" -T "ALBUM=%g" -T "DATE=%y" -T "TRACKNUMBER=%n" -T "GENRE=%m" -T "COMMENT=%e" %s -o %d
TOC извлечённого CD
     Трек |   Старт  | Длительность | Начальный сектор | Конечный сектор
    ---------------------------------------------------------------------
       1  |  0:02.30 |    4:13.06   |         180      |      19160
       2  |  4:15.36 |    4:11.50   |       19161      |      38035
       3  |  8:27.11 |    4:51.55   |       38036      |      59915
       4  | 13:18.66 |    4:57.42   |       59916      |      82232
       5  | 18:16.33 |    4:29.61   |       82233      |     102468
       6  | 22:46.19 |    6:37.59   |      102469      |     132302
       7  | 29:24.03 |    5:09.62   |      132303      |     155539
       8  | 34:33.65 |    4:24.68   |      155540      |     175407
       9  | 38:58.58 |    2:52.72   |      175408      |     188379
      10  | 41:51.55 |    2:26.39   |      188380      |     199368
      11  | 44:18.19 |    5:09.35   |      199369      |     222578
      12  | 49:27.54 |    4:19.73   |      222579      |     242076
      13  | 53:47.52 |    4:49.08   |      242077      |     263759
      14  | 58:36.60 |    2:10.61   |      263760      |     273570
      15  | 60:47.46 |    5:18.45   |      273571      |     297465
      16  | 66:06.16 |    4:05.64   |      297466      |     315904
      17  | 70:12.05 |    3:38.63   |      315905      |     332317
Характеристики диапазона извлечения и сообщения об ошибках
Выбранный диапазон
     Имя файла H:\СКАЧКА\FLAC\1 TORRENT\Diverje - 2 40 AM.wav
     Пиковый уровень 99.9 %
     Качество диапазона 99.9 %
     CRC теста 5D76DDCE
     CRC копии 5D76DDCE
     Копирование... OK
Ошибок не произошло
AccurateRip: сводка
Трек  1  нет в базе данных
Трек  2  нет в базе данных
Трек  3  нет в базе данных
Трек  4  нет в базе данных
Трек  5  нет в базе данных
Трек  6  нет в базе данных
Трек  7  нет в базе данных
Трек  8  нет в базе данных
Трек  9  нет в базе данных
Трек 10  нет в базе данных
Трек 11  нет в базе данных
Трек 12  нет в базе данных
Трек 13  нет в базе данных
Трек 14  нет в базе данных
Трек 15  нет в базе данных
Трек 16  нет в базе данных
Трек 17  нет в базе данных
Ни одного трека нет в базе AccurateRip
Конец отчёта
#777Тип рипа: image+.cue
Битрейт аудио: lossless
Продолжительность Disc1: 1:10:52.01
Продолжительность Disc2: 1:14:37.38
Треклист:
Disc1
01. Broken [4:58]
02. Amphibian [6:08]
03. Deliverance [5:03]
04. In2The Trap [5:19]
05. Images [5:51]
06. Red-Eyed [7:01]
07. StepbackUP [4:21]
08. Stronger [4:37]
09. Companion [4:15]
10. Siliconed [5:18]
11. You Suck [3:40]
12. Final Conflict [5:46]
13. Re-Animate [5:12]
14. PolliWog [3:23]
Disc2
01. Amphibian (The Mercy Cage) [5:19]
02. Broken (E.S.R.) [5:42]
03. Imaes (Aghast View) [5:50]
04. In2The Trap (E.S.R.) [4:40]
05. Deliverance (Bio-Mechanical Degeneration) [5:19]
06. Companion (Auspex) [4:39]
07. Broken (The Mercy Cage) [6:56]
08. Red-Eyed (Data Raper) [6:00]
09. In2The Trap (Fr/Action) [5:05]
10. Deliverance (Tecnoman S.F.) [5:46]
11. Red-Eyed (Bio-Mechanical Degeneration) [5:14]
12. Broken (Babel-17) [4:52]
13. In2The Trap (System Syn) [3:53]
14. Amphibian (Croc Shop) [5:22]
Код:
Exact Audio Copy V0.99 prebeta 5 from 4. May 2009
Отчёт EAC об извлечении, выполненном 14. ноября 2010, 9:00
Diverje / Amphibian
Дисковод: Optiarc DVD RW AD-7173A   Adapter: 0  ID: 0
Режим чтения                 : Достоверность
Использование точного потока : Да
Отключение кэша аудио        : Да
Использование указателей C2  : Нет
Коррекция смещения при чтении                     : 48
Способность читать области Lead-in и Lead-out     : Нет
Заполнение пропущенных сэмплов тишиной            : Да
Удаление блоков с тишиной в начале и конце        : Нет
При вычислениях CRC использовались нулевые сэмплы : Да
Интерфейс                                         : Установленный внешний ASPI-интерфейс
Выходной формат          : Пользовательский кодировщик
Выбранный битрейт        : 1024 kBit/s
Качество                 : Высокий
Добавление ID3-тэга      : Нет
Утилита сжатия           : C:\Program Files\Exact Audio Copy\flac.exe
Дополнительные параметры : -6 -V -T "ARTIST=%a" -T "TITLE=%t" -T "ALBUM=%g" -T "DATE=%y" -T "TRACKNUMBER=%n" -T "GENRE=%m" -T "COMMENT=%e" %s -o %d
TOC извлечённого CD
     Трек |   Старт  | Длительность | Начальный сектор | Конечный сектор
    ---------------------------------------------------------------------
       1  |  0:00.00 |    4:57.61   |           0      |      22335
       2  |  4:57.61 |    6:08.16   |       22336      |      49951
       3  | 11:06.02 |    5:02.65   |       49952      |      72666
       4  | 16:08.67 |    5:18.56   |       72667      |      96572
       5  | 21:27.48 |    5:51.11   |       96573      |     122908
       6  | 27:18.59 |    7:00.49   |      122909      |     154457
       7  | 34:19.33 |    4:21.18   |      154458      |     174050
       8  | 38:40.51 |    4:36.43   |      174051      |     194793
       9  | 43:17.19 |    4:15.23   |      194794      |     213941
      10  | 47:32.42 |    5:17.61   |      213942      |     237777
      11  | 52:50.28 |    3:39.67   |      237778      |     254269
      12  | 56:30.20 |    5:46.32   |      254270      |     280251
      13  | 62:16.52 |    5:11.68   |      280252      |     303644
      14  | 67:28.45 |    3:23.31   |      303645      |     318900
Характеристики диапазона извлечения и сообщения об ошибках
Выбранный диапазон
     Имя файла H:\СКАЧКА\FLAC\1 TORRENT\Diverje - Amphibian.wav
     Пиковый уровень 100.0 %
     Качество диапазона 100.0 %
     CRC теста A871B13B
     CRC копии A871B13B
     Копирование... OK
Ошибок не произошло
AccurateRip: сводка
Трек  1  нет в базе данных
Трек  2  нет в базе данных
Трек  3  нет в базе данных
Трек  4  нет в базе данных
Трек  5  нет в базе данных
Трек  6  нет в базе данных
Трек  7  нет в базе данных
Трек  8  нет в базе данных
Трек  9  нет в базе данных
Трек 10  нет в базе данных
Трек 11  нет в базе данных
Трек 12  нет в базе данных
Трек 13  нет в базе данных
Трек 14  нет в базе данных
Ни одного трека нет в базе AccurateRip
Конец отчёта
Код:
Exact Audio Copy V0.99 prebeta 5 from 4. May 2009
Отчёт EAC об извлечении, выполненном 14. ноября 2010, 10:31
Diverje / Amphibian
Дисковод: Optiarc DVD RW AD-7173A   Adapter: 0  ID: 0
Режим чтения                 : Достоверность
Использование точного потока : Да
Отключение кэша аудио        : Да
Использование указателей C2  : Нет
Коррекция смещения при чтении                     : 48
Способность читать области Lead-in и Lead-out     : Нет
Заполнение пропущенных сэмплов тишиной            : Да
Удаление блоков с тишиной в начале и конце        : Нет
При вычислениях CRC использовались нулевые сэмплы : Да
Интерфейс                                         : Установленный внешний ASPI-интерфейс
Выходной формат          : Пользовательский кодировщик
Выбранный битрейт        : 1024 kBit/s
Качество                 : Высокий
Добавление ID3-тэга      : Нет
Утилита сжатия           : C:\Program Files\Exact Audio Copy\flac.exe
Дополнительные параметры : -6 -V -T "ARTIST=%a" -T "TITLE=%t" -T "ALBUM=%g" -T "DATE=%y" -T "TRACKNUMBER=%n" -T "GENRE=%m" -T "COMMENT=%e" %s -o %d
TOC извлечённого CD
     Трек |   Старт  | Длительность | Начальный сектор | Конечный сектор
    ---------------------------------------------------------------------
       1  |  0:00.00 |    5:19.01   |           0      |      23925
       2  |  5:19.01 |    5:42.32   |       23926      |      49607
       3  | 11:01.33 |    5:49.43   |       49608      |      75825
       4  | 16:51.01 |    4:39.68   |       75826      |      96818
       5  | 21:30.69 |    5:18.42   |       96819      |     120710
       6  | 26:49.36 |    4:39.20   |      120711      |     141655
       7  | 31:28.56 |    6:55.61   |      141656      |     172841
       8  | 38:24.42 |    5:59.61   |      172842      |     199827
       9  | 44:24.28 |    5:05.08   |      199828      |     222710
      10  | 49:29.36 |    5:46.10   |      222711      |     248670
      11  | 55:15.46 |    5:14.29   |      248671      |     272249
      12  | 60:30.00 |    4:51.72   |      272250      |     294146
      13  | 65:21.72 |    3:53.06   |      294147      |     311627
      14  | 69:15.03 |    5:22.35   |      311628      |     335812
Характеристики диапазона извлечения и сообщения об ошибках
Выбранный диапазон
     Имя файла H:\СКАЧКА\FLAC\1 TORRENT\Diverje - Amphibian.wav
     Пиковый уровень 100.0 %
     Качество диапазона 99.9 %
     CRC теста 0C573469
     CRC копии 0C573469
     Копирование... OK
Ошибок не произошло
AccurateRip: сводка
Трек  1  нет в базе данных
Трек  2  нет в базе данных
Трек  3  нет в базе данных
Трек  4  нет в базе данных
Трек  5  нет в базе данных
Трек  6  нет в базе данных
Трек  7  нет в базе данных
Трек  8  нет в базе данных
Трек  9  нет в базе данных
Трек 10  нет в базе данных
Трек 11  нет в базе данных
Трек 12  нет в базе данных
Трек 13  нет в базе данных
Трек 14  нет в базе данных
Ни одного трека нет в базе AccurateRip
Конец отчёта
[
#777Тип рипа: image+.cue
Битрейт аудио: lossless
Продолжительность: 1:15:50.44
Треклист:
01. Enough To Destroy [4:42]
02. The Distortion Chamber [5:43]
03. Test Samples [5:55]
04. Individual [5:11]
05. Your Pleasure (Harsh) [4:50]
06. I Walk Alone [6:12]
07. No Time For Compromise [4:55]
08. Stupid People Shouldn't Breed [4:04]
09. Mirage [4:36]
10. Time Is The Enemy [5:12]
11. The Decline Of The CD Generation [3:44]
12. Overpopulation [4:25]
13. Be Human Again [6:03]
14. Your Pleasure (Grind) [6:39]
15. Basic Training 101 [1:47]
16. Not In My Name [1:54]
Код:
Exact Audio Copy V0.99 prebeta 5 from 4. May 2009
Отчёт EAC об извлечении, выполненном 14. ноября 2010, 0:29
Diverje / The Distortion Chamber
Дисковод: Optiarc DVD RW AD-7173A   Adapter: 0  ID: 0
Режим чтения                 : Достоверность
Использование точного потока : Да
Отключение кэша аудио        : Да
Использование указателей C2  : Нет
Коррекция смещения при чтении                     : 48
Способность читать области Lead-in и Lead-out     : Нет
Заполнение пропущенных сэмплов тишиной            : Да
Удаление блоков с тишиной в начале и конце        : Нет
При вычислениях CRC использовались нулевые сэмплы : Да
Интерфейс                                         : Установленный внешний ASPI-интерфейс
Выходной формат          : Пользовательский кодировщик
Выбранный битрейт        : 1024 kBit/s
Качество                 : Высокий
Добавление ID3-тэга      : Нет
Утилита сжатия           : C:\Program Files\Exact Audio Copy\flac.exe
Дополнительные параметры : -6 -V -T "ARTIST=%a" -T "TITLE=%t" -T "ALBUM=%g" -T "DATE=%y" -T "TRACKNUMBER=%n" -T "GENRE=%m" -T "COMMENT=%e" %s -o %d
TOC извлечённого CD
     Трек |   Старт  | Длительность | Начальный сектор | Конечный сектор
    ---------------------------------------------------------------------
       1  |  0:00.00 |    4:41.51   |           0      |      21125
       2  |  4:41.51 |    5:42.69   |       21126      |      46844
       3  | 10:24.45 |    5:54.48   |       46845      |      73442
       4  | 16:19.18 |    5:11.21   |       73443      |      96788
       5  | 21:30.39 |    4:49.53   |       96789      |     118516
       6  | 26:20.17 |    6:11.43   |      118517      |     146384
       7  | 32:31.60 |    4:54.40   |      146385      |     168474
       8  | 37:26.25 |    4:04.22   |      168475      |     186796
       9  | 41:30.47 |    4:35.55   |      186797      |     207476
      10  | 46:06.27 |    5:11.44   |      207477      |     230845
      11  | 51:17.71 |    3:43.54   |      230846      |     247624
      12  | 55:01.50 |    4:25.35   |      247625      |     267534
      13  | 59:27.10 |    6:03.26   |      267535      |     294785
      14  | 65:30.36 |    6:39.14   |      294786      |     324724
      15  | 72:09.50 |    1:46.51   |      324725      |     332725
      16  | 73:56.26 |    1:54.18   |      332726      |     341293
Характеристики диапазона извлечения и сообщения об ошибках
Выбранный диапазон
     Имя файла H:\СКАЧКА\FLAC\1 TORRENT\Diverje - The Distortion Chamber.wav
     Пиковый уровень 97.6 %
     Качество диапазона 99.9 %
     CRC теста F755A480
     CRC копии F755A480
     Копирование... OK
Ошибок не произошло
AccurateRip: сводка
Трек  1  нет в базе данных
Трек  2  нет в базе данных
Трек  3  нет в базе данных
Трек  4  нет в базе данных
Трек  5  нет в базе данных
Трек  6  нет в базе данных
Трек  7  нет в базе данных
Трек  8  нет в базе данных
Трек  9  нет в базе данных
Трек 10  нет в базе данных
Трек 11  нет в базе данных
Трек 12  нет в базе данных
Трек 13  нет в базе данных
Трек 14  нет в базе данных
Трек 15  нет в базе данных
Трек 16  нет в базе данных
Ни одного трека нет в базе AccurateRip
Конец отчёта
#777Тип рипа: image+.cue
Битрейт аудио: lossless
Продолжительность: 1:17:07.26
Треклист:
01. Smell The Blood [5:35]
02. Stitched [5:37]
03. Evil One [4:54]
04. Unleashed [4:52]
05. Run Like Hell [5:05]
06. Tear It Down [5:25]
07. Come Back [5:00]
08. Help Me (feat. Chiasm) [5:12]
09. Wrapped Around [5:05]
10. Ho For Sho [3:43]
11. Mainstream Collapsing [5:27]
12. Stitched (Dead Jump remix) [5:11]
13. Smell The Blood (Pre-Emptive Strike 0.1) [5:09]
14. Stitched (Alien Produkt remix) [5:34]
15. Smell The Blood (Noise Process remix) [5:21]
Код:
Exact Audio Copy V0.99 prebeta 5 from 4. May 2009
Отчёт EAC об извлечении, выполненном 15. ноября 2010, 17:05
Diverje / Stitched
Дисковод: Optiarc DVD RW AD-7173A   Adapter: 0  ID: 0
Режим чтения                 : Достоверность
Использование точного потока : Да
Отключение кэша аудио        : Да
Использование указателей C2  : Нет
Коррекция смещения при чтении                     : 48
Способность читать области Lead-in и Lead-out     : Нет
Заполнение пропущенных сэмплов тишиной            : Да
Удаление блоков с тишиной в начале и конце        : Нет
При вычислениях CRC использовались нулевые сэмплы : Да
Интерфейс                                         : Установленный внешний ASPI-интерфейс
Выходной формат          : Пользовательский кодировщик
Выбранный битрейт        : 1024 kBit/s
Качество                 : Высокий
Добавление ID3-тэга      : Нет
Утилита сжатия           : C:\Program Files\Exact Audio Copy\flac.exe
Дополнительные параметры : -6 -V -T "ARTIST=%a" -T "TITLE=%t" -T "ALBUM=%g" -T "DATE=%y" -T "TRACKNUMBER=%n" -T "GENRE=%m" -T "COMMENT=%e" %s -o %d
TOC извлечённого CD
     Трек |   Старт  | Длительность | Начальный сектор | Конечный сектор
    ---------------------------------------------------------------------
       1  |  0:00.00 |    5:34.62   |           0      |      25111
       2  |  5:34.62 |    5:37.12   |       25112      |      50398
       3  | 11:11.74 |    4:53.47   |       50399      |      72420
       4  | 16:05.46 |    4:51.59   |       72421      |      94304
       5  | 20:57.30 |    5:04.58   |       94305      |     117162
       6  | 26:02.13 |    5:24.73   |      117163      |     141535
       7  | 31:27.11 |    4:59.49   |      141536      |     164009
       8  | 36:26.60 |    5:12.20   |      164010      |     187429
       9  | 41:39.05 |    5:04.64   |      187430      |     210293
      10  | 46:43.69 |    3:42.48   |      210294      |     226991
      11  | 50:26.42 |    5:26.50   |      226992      |     251491
      12  | 55:53.17 |    5:10.44   |      251492      |     274785
      13  | 61:03.61 |    5:08.61   |      274786      |     297946
      14  | 66:12.47 |    5:34.10   |      297947      |     323006
      15  | 71:46.57 |    5:20.44   |      323007      |     347050
Характеристики диапазона извлечения и сообщения об ошибках
Выбранный диапазон
     Имя файла D:\Музыка\Diverje - Stitched.wav
     Пиковый уровень 100.0 %
     Качество диапазона 100.0 %
     CRC теста D3900FC7
     CRC копии D3900FC7
     Копирование... OK
Ошибок не произошло
AccurateRip: сводка
Трек  1  нет в базе данных
Трек  2  нет в базе данных
Трек  3  нет в базе данных
Трек  4  нет в базе данных
Трек  5  нет в базе данных
Трек  6  нет в базе данных
Трек  7  нет в базе данных
Трек  8  нет в базе данных
Трек  9  нет в базе данных
Трек 10  нет в базе данных
Трек 11  нет в базе данных
Трек 12  нет в базе данных
Трек 13  нет в базе данных
Трек 14  нет в базе данных
Трек 15  нет в базе данных
Ни одного трека нет в базе AccurateRip
Конец отчёта
#777Тип рипа: image+.cue
Битрейт аудио: lossless
Продолжительность: 1:15:43.39
Треклист:
01. Unleashed (Roppongi Inc. Project remix) [8:17]
02. Stitched ('Speed Mix' by Obscure Descension) [5:28]
03. Unleashed (Trance Authority remix) [8:57]
04. Stitched (Mordacious remix) [5:22]
05. Smell The Blood (Obscure Descension mix) [5:52]
06. Wrapped Around (The Synthetic Dream Foundation remix) [5:29]
07. Unleashed (Louis Guidone remix) [7:32]
08. Enough To Destroy (System Syn remix) [3:36]
09. Test Samples (Encoder remix) [4:57]
10. I Walk Alone (The Pain Machinery remix) [5:01]
11. Stitched (Audio Buddha remix) [6:03]
12. Smell The Blood (Coreline remix) [5:29]
13. Unleashed (The Weatherman remix) [3:40]
Код:
Exact Audio Copy V0.99 prebeta 5 from 4. May 2009
Отчёт EAC об извлечении, выполненном 13. ноября 2010, 22:52
Diverje / Unleashed
Дисковод: Optiarc DVD RW AD-7173A   Adapter: 0  ID: 0
Режим чтения                 : Достоверность
Использование точного потока : Да
Отключение кэша аудио        : Да
Использование указателей C2  : Нет
Коррекция смещения при чтении                     : 48
Способность читать области Lead-in и Lead-out     : Нет
Заполнение пропущенных сэмплов тишиной            : Да
Удаление блоков с тишиной в начале и конце        : Нет
При вычислениях CRC использовались нулевые сэмплы : Да
Интерфейс                                         : Установленный внешний ASPI-интерфейс
Выходной формат          : Пользовательский кодировщик
Выбранный битрейт        : 1024 kBit/s
Качество                 : Высокий
Добавление ID3-тэга      : Нет
Утилита сжатия           : C:\Program Files\Exact Audio Copy\flac.exe
Дополнительные параметры : -6 -V -T "ARTIST=%a" -T "TITLE=%t" -T "ALBUM=%g" -T "DATE=%y" -T "TRACKNUMBER=%n" -T "GENRE=%m" -T "COMMENT=%e" %s -o %d
TOC извлечённого CD
     Трек |   Старт  | Длительность | Начальный сектор | Конечный сектор
    ---------------------------------------------------------------------
       1  |  0:00.00 |    8:17.04   |           0      |      37278
       2  |  8:17.04 |    5:27.59   |       37279      |      61862
       3  | 13:44.63 |    8:57.33   |       61863      |     102170
       4  | 22:42.21 |    5:21.58   |      102171      |     126303
       5  | 28:04.04 |    5:51.52   |      126304      |     152680
       6  | 33:55.56 |    5:28.55   |      152681      |     177335
       7  | 39:24.36 |    7:32.05   |      177336      |     211240
       8  | 46:56.41 |    3:36.24   |      211241      |     227464
       9  | 50:32.65 |    4:56.64   |      227465      |     249728
      10  | 55:29.54 |    5:00.59   |      249729      |     272287
      11  | 60:30.38 |    6:03.09   |      272288      |     299521
      12  | 66:33.47 |    5:29.33   |      299522      |     324229
      13  | 72:03.05 |    3:40.34   |      324230      |     340763
Характеристики диапазона извлечения и сообщения об ошибках
Выбранный диапазон
     Имя файла H:\СКАЧКА\FLAC\1 TORRENT\Diverje - Unleashed.wav
     Пиковый уровень 100.0 %
     Качество диапазона 99.9 %
     CRC теста 48AC2B2B
     CRC копии 2CC79352
     Копирование... OK
Ошибок не произошло
AccurateRip: сводка
Трек  1  нет в базе данных
Трек  2  нет в базе данных
Трек  3  нет в базе данных
Трек  4  нет в базе данных
Трек  5  нет в базе данных
Трек  6  нет в базе данных
Трек  7  нет в базе данных
Трек  8  нет в базе данных
Трек  9  нет в базе данных
Трек 10  нет в базе данных
Трек 11  нет в базе данных
Трек 12  нет в базе данных
Трек 13  нет в базе данных
Ни одного трека нет в базе AccurateRip
Конец отчёта
#777Тип рипа: image+.cue
Битрейт аудио: lossless
Продолжительность: 1:09:11.25
Треклист:
01. Evil Never Dies (Original mix) [5:11]
02. Evil Never Dies (Vigilante remix) [3:09]
03. Evil Never Dies (Psykkle remix) [5:40]
04. Suffer This World (Control.org/C2 remix) [4:06]
05. Suffer This World (Mordacious remix) [4:48]
06. Evil Never Dies (Mangadrive remix) [5:40]
07. Evil Never Dies (vProject remix) [5:02]
08. All This Anger (Unreleased Track) [4:28]
09. Suffer This World (LPF12 remix) [4:12]
10. Evil Never Dies (Noir Effect remix) [5:07]
11. Evil Never Dies (A Field Of Black Orchids remix) [5:14]
12. Xerox (Unreleased Track) [4:22]
13. Evil Never Dies (The Headcase remix) [4:21]
14. Distrust (Unreleased Track) [2:48]
15. Evil Never Dies (vProject Vocal Version) [5:03]
Код:
Exact Audio Copy V0.99 prebeta 5 from 4. May 2009
Отчёт EAC об извлечении, выполненном 14. ноября 2010, 11:16
Diverje / Evil Never Dies [EP]
Дисковод: Optiarc DVD RW AD-7173A   Adapter: 0  ID: 0
Режим чтения                 : Достоверность
Использование точного потока : Да
Отключение кэша аудио        : Да
Использование указателей C2  : Нет
Коррекция смещения при чтении                     : 48
Способность читать области Lead-in и Lead-out     : Нет
Заполнение пропущенных сэмплов тишиной            : Да
Удаление блоков с тишиной в начале и конце        : Нет
При вычислениях CRC использовались нулевые сэмплы : Да
Интерфейс                                         : Установленный внешний ASPI-интерфейс
Выходной формат          : Пользовательский кодировщик
Выбранный битрейт        : 1024 kBit/s
Качество                 : Высокий
Добавление ID3-тэга      : Нет
Утилита сжатия           : C:\Program Files\Exact Audio Copy\flac.exe
Дополнительные параметры : -6 -V -T "ARTIST=%a" -T "TITLE=%t" -T "ALBUM=%g" -T "DATE=%y" -T "TRACKNUMBER=%n" -T "GENRE=%m" -T "COMMENT=%e" %s -o %d
TOC извлечённого CD
     Трек |   Старт  | Длительность | Начальный сектор | Конечный сектор
    ---------------------------------------------------------------------
       1  |  0:00.00 |    5:11.00   |           0      |      23324
       2  |  5:11.00 |    3:08.55   |       23325      |      37479
       3  |  8:19.55 |    5:40.28   |       37480      |      63007
       4  | 14:00.08 |    4:06.31   |       63008      |      81488
       5  | 18:06.39 |    4:48.04   |       81489      |     103092
       6  | 22:54.43 |    5:40.28   |      103093      |     128620
       7  | 28:34.71 |    5:02.19   |      128621      |     151289
       8  | 33:37.15 |    4:28.01   |      151290      |     171390
       9  | 38:05.16 |    4:11.39   |      171391      |     190254
      10  | 42:16.55 |    5:06.65   |      190255      |     213269
      11  | 47:23.45 |    5:14.14   |      213270      |     236833
      12  | 52:37.59 |    4:21.66   |      236834      |     256474
      13  | 56:59.50 |    4:21.20   |      256475      |     276069
      14  | 61:20.70 |    2:47.50   |      276070      |     288644
      15  | 64:08.45 |    5:02.55   |      288645      |     311349
Характеристики диапазона извлечения и сообщения об ошибках
Выбранный диапазон
     Имя файла H:\СКАЧКА\FLAC\1 TORRENT\Diverje - Evil Never Dies [EP].wav
     Пиковый уровень 100.0 %
     Качество диапазона 100.0 %
     CRC теста DA430FF5
     CRC копии DA430FF5
     Копирование... OK
Ошибок не произошло
AccurateRip: сводка
Трек  1  нет в базе данных
Трек  2  нет в базе данных
Трек  3  нет в базе данных
Трек  4  нет в базе данных
Трек  5  нет в базе данных
Трек  6  нет в базе данных
Трек  7  нет в базе данных
Трек  8  нет в базе данных
Трек  9  нет в базе данных
Трек 10  нет в базе данных
Трек 11  нет в базе данных
Трек 12  нет в базе данных
Трек 13  нет в базе данных
Трек 14  нет в базе данных
Трек 15  нет в базе данных
Ни одного трека нет в базе AccurateRip
Конец отчёта
#777Тип рипа: image+.cue
Битрейт аудио: lossless
Продолжительность: 1:16:01.00
Треклист:
01. Suffer This World [5:25]
02. Superficial Slut (Orginal) [5:05]
03. Bunker Soul (vs. Cold Drive vs. Vigilante) [7:13]
04. Evil Never Dies [5:11]
05. Beautiful Disaster [4:37]
06. Leave In Silence [5:20]
07. Feed The Rich [5:14]
08. Vigilant [4:17]
09. Burn Away [5:14]
10. You Can Hurt [4:52]
11. Everything Is Wasted [3:58]
12. It's A Bong (Not A Bomb) [6:28]
13. Suffer This World (Proyecto Crisis mix) [4:53]
14. Evil Never Dies (Vigilante mix) [3:09]
15. Superficial Slut (Club mix) [5:06]
Код:
Exact Audio Copy V0.99 prebeta 5 from 4. May 2009
Отчёт EAC об извлечении, выполненном 13. февраля 2011, 21:26
Diverje / Burn Away
Дисковод: Optiarc DVD RW AD-7173A   Adapter: 0  ID: 0
Режим чтения                 : Достоверность
Использование точного потока : Да
Отключение кэша аудио        : Да
Использование указателей C2  : Нет
Коррекция смещения при чтении                     : 48
Способность читать области Lead-in и Lead-out     : Нет
Заполнение пропущенных сэмплов тишиной            : Да
Удаление блоков с тишиной в начале и конце        : Нет
При вычислениях CRC использовались нулевые сэмплы : Да
Интерфейс                                         : Установленный внешний ASPI-интерфейс
Выходной формат          : Пользовательский кодировщик
Выбранный битрейт        : 1024 kBit/s
Качество                 : Высокий
Добавление ID3-тэга      : Нет
Утилита сжатия           : C:\Program Files\Exact Audio Copy\flac.exe
Дополнительные параметры : -6 -V -T "ARTIST=%a" -T "TITLE=%t" -T "ALBUM=%g" -T "DATE=%y" -T "TRACKNUMBER=%n" -T "GENRE=%m" -T "COMMENT=%e" %s -o %d
TOC извлечённого CD
     Трек |   Старт  | Длительность | Начальный сектор | Конечный сектор
    ---------------------------------------------------------------------
       1  |  0:00.00 |    5:24.64   |           0      |      24363
       2  |  5:24.64 |    5:05.36   |       24364      |      47274
       3  | 10:30.25 |    7:12.50   |       47275      |      79724
       4  | 17:43.00 |    5:11.00   |       79725      |     103049
       5  | 22:54.00 |    4:37.25   |      103050      |     123849
       6  | 27:31.25 |    5:20.00   |      123850      |     147849
       7  | 32:51.25 |    5:13.54   |      147850      |     171378
       8  | 38:05.04 |    4:16.73   |      171379      |     190651
       9  | 42:22.02 |    5:14.32   |      190652      |     214233
      10  | 47:36.34 |    4:51.47   |      214234      |     236105
      11  | 52:28.06 |    3:57.46   |      236106      |     253926
      12  | 56:25.52 |    6:28.06   |      253927      |     283032
      13  | 62:53.58 |    4:52.73   |      283033      |     305005
      14  | 67:46.56 |    3:08.55   |      305006      |     319160
      15  | 70:55.36 |    5:05.39   |      319161      |     342074
Характеристики диапазона извлечения и сообщения об ошибках
Выбранный диапазон
     Имя файла H:\СКАЧКА\FLAC\1 TORRENT\Diverje - Burn Away.wav
     Пиковый уровень 100.0 %
     Качество диапазона 99.9 %
     CRC теста EFAF1E80
     CRC копии EFAF1E80
     Копирование... OK
Ошибок не произошло
AccurateRip: сводка
Трек  1  нет в базе данных
Трек  2  нет в базе данных
Трек  3  нет в базе данных
Трек  4  нет в базе данных
Трек  5  нет в базе данных
Трек  6  нет в базе данных
Трек  7  нет в базе данных
Трек  8  нет в базе данных
Трек  9  нет в базе данных
Трек 10  нет в базе данных
Трек 11  нет в базе данных
Трек 12  нет в базе данных
Трек 13  нет в базе данных
Трек 14  нет в базе данных
Трек 15  нет в базе данных
Ни одного трека нет в базе AccurateRip
Конец отчёта
ТОРРЕНТ-ФАЙЛ ОБНОВЛЕН 14.02.2011 - Добавлены альбомы 1998 и 2010 гг
Правила, инструкции, FAQ!!!
Торрент  Добавлен [26 июн 2020, 17:37] Скачать торрент Магнет ссылка
Скачать торрент
[ Размер 39.2 КБ / Просмотров 5 ]

Статус
Проверен 
 
Размер  5.75 ГБ
Приватный: Нет (DHT включён)
.torrent скачан  0
 


     Отправить личное сообщение
   
Страница 1 из 1
Показать сообщения за:  Поле сортировки  
Начать новую тему Ответить на тему


Сейчас этот форум просматривают: нет зарегистрированных пользователей и гости: 0


Вы не можете начинать темы
Вы не можете отвечать на сообщения
Вы не можете редактировать свои сообщения
Вы не можете удалять свои сообщения
Вы не можете добавлять вложения

Перейти:  
cron