Начать новую тему Ответить на тему
Статистика раздачи
Размер: 1023.57 МБ | Добавлен: 26 июн 2020, 19:05 | Скачали: 0
Сидеров: 1  [0 байт/сек]    Личеров: 0  [0 байт/сек]
Пред. тема | След. тема 

Автор
Сообщение

СообщениеДобавлено: 26 июн 2020, 19:05 

Ответить с цитатой 

Distorted Memory / Archive (1999 - 2003) Hand Of God (Remixes)
Жанр: EBM,Industrial
Страна-производитель диска: Germany
Год издания диска: 2011
Издатель (лейбл): Noitekk
Номер по каталогу: NTK 045
Страна: Canada
Аудиокодек: FLAC (*.flac)
Тип рипа: image+.cue
Битрейт аудио: lossless
Продолжительность: 1:17:55.23 + 0:58:59.62
Источник (релизер): Собственный рип
Наличие сканов в содержимом раздачи: нет
Треклист:
CD 1 - Archive (1999 - 2003)
01. Darkness (Part I) [0:02:36.08]
02. Hellfire [0:04:01.19]
03. Raising The Dead [0:05:23.11]
04. Infection [0:06:09.46]
05. Illusion [0:06:15.17]
06. Darkness (Part II) [0:02:55.27]
07. Beyond The Darkness [0:05:11.40]
08. Necrophobia [0:06:27.53]
09. Obsession [0:06:19.40]
10. False Prophet [0:04:42.51]
11. Last Dying Breath [0:04:26.67]
12. Trauma Fit [0:05:10.52]
13. Darkness (Part III) [0:03:20.72]
14. Blindfold [0:04:24.21]
15. Starvation [0:05:14.38]
16. His Name (YHWH) [0:05:15.61]

CD 2 - Hand Of God (Remixes)
01. Hand Of God (Radio Edit) [0:04:42.00]
02. Hand Of God (Club Mix By Distorted Memory) [0:04:39.32]
03. Hand Of God (DYM Remix) [0:04:20.42]
04. Hand Of God (Acylum Remix) [0:04:06.00]
05. Hand Of God (Lo Progression Remix) [0:08:42.52]
06. Hand Of God (God Module Remix) [0:05:26.67]
07. Hand Of God (Shiv-R Remix) [0:04:31.42]
08. Hand Of God (Iszoloscope Remix) [0:06:18.47]
09. Hand Of God (Detroit Diesel Remix) [0:04:24.00]
10. Hand Of God (Stahlnebel & Black Selket Remix) [0:06:21.49]
11. Hand Of God (Psykkle Remix) [0:05:26.31]
Код:
Exact Audio Copy V1.0 beta 3 from 29. August 2011
Отчёт EAC об извлечении, выполненном 29. ноября 2011, 13:08
Archive (1999 - 2003)  / Unknown Title
Дисковод: TSSTcorpCDDVDW SH-S223C   Adapter: 1  ID: 0
Режим чтения                 : Достоверность
Использование точного потока : Да
Отключение кэша аудио        : Да
Использование указателей C2  : Нет
Коррекция смещения при чтении                     : 697
Способность читать области Lead-in и Lead-out     : Нет
Заполнение пропущенных сэмплов тишиной            : Да
Удаление блоков с тишиной в начале и конце        : Нет
При вычислениях CRC использовались нулевые сэмплы : Да
Интерфейс                                         : Встроенный Win32-интерфейс для Win NT/2000
Выходной формат          : Пользовательский кодировщик
Выбранный битрейт        : 768 kBit/s
Качество                 : Высокий
Добавление ID3-тега      : Нет
Утилита сжатия           : C:\Program Files\Exact Audio Copy\FLAC\FLAC.EXE
Дополнительные параметры : -6 -V -T "ARTIST=%artist%" -T "TITLE=%title%" -T "ALBUM=%albumtitle%" -T "DATE=%year%" -T "TRACKNUMBER=%tracknr%" -T "GENRE=%genre%" -T "COMMENT=%comment%" -T "BAND=%albuminterpret%" -T "ALBUMARTIST=%albuminterpret%" -T "COMPOSER=%composer%" %haslyrics%--tag-from-file=LYRICS="%lyricsfile%"%haslyrics% -T "DISCNUMBER=%cdnumber%" -T "TOTALDISCS=%totalcds%" -T "TOTALTRACKS=%numtracks%" %hascover%--picture="%coverfile%"%hascover% %source% -o %dest%
TOC извлечённого CD
     Трек |   Старт  | Длительность | Начальный сектор | Конечный сектор
    ---------------------------------------------------------------------
       1  |  0:00.00 |    2:36.08   |           0      |      11707
       2  |  2:36.08 |    4:01.19   |       11708      |      29801
       3  |  6:37.27 |    5:23.11   |       29802      |      54037
       4  | 12:00.38 |    6:09.46   |       54038      |      81758
       5  | 18:10.09 |    6:15.17   |       81759      |     109900
       6  | 24:25.26 |    2:55.27   |      109901      |     123052
       7  | 27:20.53 |    5:11.40   |      123053      |     146417
       8  | 32:32.18 |    6:27.53   |      146418      |     175495
       9  | 38:59.71 |    6:19.40   |      175496      |     203960
      10  | 45:19.36 |    4:42.51   |      203961      |     225161
      11  | 50:02.12 |    4:26.67   |      225162      |     245178
      12  | 54:29.04 |    5:10.52   |      245179      |     268480
      13  | 59:39.56 |    3:20.72   |      268481      |     283552
      14  | 63:00.53 |    4:24.21   |      283553      |     303373
      15  | 67:24.74 |    5:14.38   |      303374      |     326961
      16  | 72:39.37 |    5:15.61   |      326962      |     350647
Характеристики диапазона извлечения и сообщения об ошибках
Выбранный диапазон
     Имя файла C:\EAC\Distorted Memory – Archive (1999 - 2003)  Hand Of God (Remixes) (2011 Noitekk – NTK 045)(Lossless)\CD 1 Archive (1999 - 2003)\Archive (1999 - 2003)  - Unknown Title.wav
     Пиковый уровень 100.0 %
     Скорость извлечения 3.5 X
     Качество диапазона 100.0 %
     CRC теста BDD9B87E
     CRC копии BDD9B87E
     Копирование... OK
Ошибок не произошло
AccurateRip: сводка
Трек  1  отсутствует в базе данных
Трек  2  отсутствует в базе данных
Трек  3  отсутствует в базе данных
Трек  4  отсутствует в базе данных
Трек  5  отсутствует в базе данных
Трек  6  отсутствует в базе данных
Трек  7  отсутствует в базе данных
Трек  8  отсутствует в базе данных
Трек  9  отсутствует в базе данных
Трек 10  отсутствует в базе данных
Трек 11  отсутствует в базе данных
Трек 12  отсутствует в базе данных
Трек 13  отсутствует в базе данных
Трек 14  отсутствует в базе данных
Трек 15  отсутствует в базе данных
Трек 16  отсутствует в базе данных
Ни одного трека нет в базе AccurateRip
Конец отчёта
==== Контрольная сумма отчёта E95002204A3BC704CB0E3253EBFA394A3830785998B561C2FFA90EC777218AB4 ====
Код:
Exact Audio Copy V1.0 beta 3 from 29. August 2011
Отчёт EAC об извлечении, выполненном 29. ноября 2011, 14:20
Distorted Memory / Hand Of God (Remixes)
Дисковод: TSSTcorpCDDVDW SH-S223C   Adapter: 1  ID: 0
Режим чтения                 : Достоверность
Использование точного потока : Да
Отключение кэша аудио        : Да
Использование указателей C2  : Нет
Коррекция смещения при чтении                     : 697
Способность читать области Lead-in и Lead-out     : Нет
Заполнение пропущенных сэмплов тишиной            : Да
Удаление блоков с тишиной в начале и конце        : Нет
При вычислениях CRC использовались нулевые сэмплы : Да
Интерфейс                                         : Встроенный Win32-интерфейс для Win NT/2000
Выходной формат          : Пользовательский кодировщик
Выбранный битрейт        : 768 kBit/s
Качество                 : Высокий
Добавление ID3-тега      : Нет
Утилита сжатия           : C:\Program Files\Exact Audio Copy\FLAC\FLAC.EXE
Дополнительные параметры : -6 -V -T "ARTIST=%artist%" -T "TITLE=%title%" -T "ALBUM=%albumtitle%" -T "DATE=%year%" -T "TRACKNUMBER=%tracknr%" -T "GENRE=%genre%" -T "COMMENT=%comment%" -T "BAND=%albuminterpret%" -T "ALBUMARTIST=%albuminterpret%" -T "COMPOSER=%composer%" %haslyrics%--tag-from-file=LYRICS="%lyricsfile%"%haslyrics% -T "DISCNUMBER=%cdnumber%" -T "TOTALDISCS=%totalcds%" -T "TOTALTRACKS=%numtracks%" %hascover%--picture="%coverfile%"%hascover% %source% -o %dest%
TOC извлечённого CD
     Трек |   Старт  | Длительность | Начальный сектор | Конечный сектор
    ---------------------------------------------------------------------
       1  |  0:00.00 |    4:42.00   |           0      |      21149
       2  |  4:42.00 |    4:39.32   |       21150      |      42106
       3  |  9:21.32 |    4:20.42   |       42107      |      61648
       4  | 13:41.74 |    4:06.00   |       61649      |      80098
       5  | 17:47.74 |    8:42.52   |       80099      |     119300
       6  | 26:30.51 |    5:26.67   |      119301      |     143817
       7  | 31:57.43 |    4:31.42   |      143818      |     164184
       8  | 36:29.10 |    6:18.47   |      164185      |     192581
       9  | 42:47.57 |    4:24.00   |      192582      |     212381
      10  | 47:11.57 |    6:21.49   |      212382      |     241005
      11  | 53:33.31 |    5:26.31   |      241006      |     265486
Характеристики диапазона извлечения и сообщения об ошибках
Выбранный диапазон
     Имя файла C:\EAC\Distorted Memory – Archive (1999 - 2003)  Hand Of God (Remixes) (2011 Noitekk – NTK 045)(Lossless)\CD 2 Hand Of God (Remixes)\Distorted Memory - Hand Of God (Remixes).wav
     Пиковый уровень 98.8 %
     Скорость извлечения 2.4 X
     Качество диапазона 100.0 %
     CRC теста 93DBBB51
     CRC копии 93DBBB51
     Копирование... OK
Ошибок не произошло
AccurateRip: сводка
Трек  1  отсутствует в базе данных
Трек  2  отсутствует в базе данных
Трек  3  отсутствует в базе данных
Трек  4  отсутствует в базе данных
Трек  5  отсутствует в базе данных
Трек  6  отсутствует в базе данных
Трек  7  отсутствует в базе данных
Трек  8  отсутствует в базе данных
Трек  9  отсутствует в базе данных
Трек 10  отсутствует в базе данных
Трек 11  отсутствует в базе данных
Ни одного трека нет в базе AccurateRip
Конец отчёта
==== Контрольная сумма отчёта 237F6BF661F31AB08F13B93B4701E915CCEA29A58D04634264D3571F065B0EDE ====
Код:
REM GENRE Industrial
REM DATE 2011
REM DISCID D9124310
REM COMMENT "ExactAudioCopy v1.0b3"
PERFORMER "Archive (1999 - 2003) "
TITLE "Unknown Title"
FILE "Archive (1999 - 2003)  - Unknown Title.flac" WAVE
  TRACK 01 AUDIO
    TITLE "Darkness (Part I)"
    PERFORMER "Archive (1999 - 2003) "
    INDEX 01 00:00:00
  TRACK 02 AUDIO
    TITLE "Hellfire"
    PERFORMER "Archive (1999 - 2003) "
    INDEX 00 02:34:09
    INDEX 01 02:36:08
  TRACK 03 AUDIO
    TITLE "Raising The Dead"
    PERFORMER "Archive (1999 - 2003) "
    INDEX 00 06:35:28
    INDEX 01 06:37:27
  TRACK 04 AUDIO
    TITLE "Infection"
    PERFORMER "Archive (1999 - 2003) "
    INDEX 00 11:58:39
    INDEX 01 12:00:38
  TRACK 05 AUDIO
    TITLE "Illusion"
    PERFORMER "Archive (1999 - 2003) "
    INDEX 00 18:08:10
    INDEX 01 18:10:09
  TRACK 06 AUDIO
    TITLE "Darkness (Part II)"
    PERFORMER "Archive (1999 - 2003) "
    INDEX 00 24:23:27
    INDEX 01 24:25:26
  TRACK 07 AUDIO
    TITLE "Beyond The Darkness"
    PERFORMER "Archive (1999 - 2003) "
    INDEX 00 27:18:54
    INDEX 01 27:20:53
  TRACK 08 AUDIO
    TITLE "Necrophobia"
    PERFORMER "Archive (1999 - 2003) "
    INDEX 00 32:30:19
    INDEX 01 32:32:18
  TRACK 09 AUDIO
    TITLE "Obsession"
    PERFORMER "Archive (1999 - 2003) "
    INDEX 00 38:57:72
    INDEX 01 38:59:71
  TRACK 10 AUDIO
    TITLE "False Prophet"
    PERFORMER "Archive (1999 - 2003) "
    INDEX 00 45:17:37
    INDEX 01 45:19:36
  TRACK 11 AUDIO
    TITLE "Last Dying Breath"
    PERFORMER "Archive (1999 - 2003) "
    INDEX 00 50:00:13
    INDEX 01 50:02:12
  TRACK 12 AUDIO
    TITLE "Trauma Fit"
    PERFORMER "Archive (1999 - 2003) "
    INDEX 00 54:27:05
    INDEX 01 54:29:04
  TRACK 13 AUDIO
    TITLE "Darkness (Part III)"
    PERFORMER "Archive (1999 - 2003) "
    INDEX 00 59:37:57
    INDEX 01 59:39:56
  TRACK 14 AUDIO
    TITLE "Blindfold"
    PERFORMER "Archive (1999 - 2003) "
    INDEX 00 62:58:54
    INDEX 01 63:00:53
  TRACK 15 AUDIO
    TITLE "Starvation"
    PERFORMER "Archive (1999 - 2003) "
    INDEX 00 67:23:00
    INDEX 01 67:24:74
  TRACK 16 AUDIO
    TITLE "His Name (YHWH)"
    PERFORMER "Archive (1999 - 2003) "
    INDEX 00 72:37:38
    INDEX 01 72:39:37
Код:
REM GENRE Industrial
REM DATE 2011
REM DISCID 9E0DD30B
REM COMMENT "ExactAudioCopy v1.0b3"
PERFORMER "Distorted Memory"
TITLE "Hand Of God (Remixes) "
FILE "Distorted Memory - Hand Of God (Remixes).flac" WAVE
  TRACK 01 AUDIO
    TITLE "Hand Of God (Radio Edit)"
    PERFORMER "Distorted Memory"
    INDEX 01 00:00:00
  TRACK 02 AUDIO
    TITLE "Hand Of God (Club Mix By Distorted Memory)"
    PERFORMER "Distorted Memory"
    INDEX 00 04:40:01
    INDEX 01 04:42:00
  TRACK 03 AUDIO
    TITLE "Hand Of God (DYM Remix)"
    PERFORMER "Distorted Memory"
    INDEX 00 09:19:33
    INDEX 01 09:21:32
  TRACK 04 AUDIO
    TITLE "Hand Of God (Acylum Remix)"
    PERFORMER "Distorted Memory"
    INDEX 00 13:40:00
    INDEX 01 13:41:74
  TRACK 05 AUDIO
    TITLE "Hand Of God (Lo Progression Remix)"
    PERFORMER "Distorted Memory"
    INDEX 00 17:46:00
    INDEX 01 17:47:74
  TRACK 06 AUDIO
    TITLE "Hand Of God (God Module Remix)"
    PERFORMER "Distorted Memory"
    INDEX 00 26:28:52
    INDEX 01 26:30:51
  TRACK 07 AUDIO
    TITLE "Hand Of God (Shiv-R Remix)"
    PERFORMER "Distorted Memory"
    INDEX 00 31:55:44
    INDEX 01 31:57:43
  TRACK 08 AUDIO
    TITLE "Hand Of God (Iszoloscope Remix)"
    PERFORMER "Distorted Memory"
    INDEX 00 36:27:11
    INDEX 01 36:29:10
  TRACK 09 AUDIO
    TITLE "Hand Of God (Detroit Diesel Remix)"
    PERFORMER "Distorted Memory"
    INDEX 00 42:45:57
    INDEX 01 42:47:57
  TRACK 10 AUDIO
    TITLE "Hand Of God (Stahlnebel & Black Selket Remix)"
    PERFORMER "Distorted Memory"
    INDEX 00 47:09:58
    INDEX 01 47:11:57
  TRACK 11 AUDIO
    TITLE "Hand Of God (Psykkle Remix)"
    PERFORMER "Distorted Memory"
    INDEX 00 53:31:32
    INDEX 01 53:33:31



[/pre]


Правила, инструкции, FAQ!!!
Торрент  Добавлен [26 июн 2020, 19:05] Скачать торрент Магнет ссылка
Скачать торрент
[ Размер 21.82 КБ / Просмотров 8 ]

Статус
Проверен 
 
Размер  1023.57 МБ
Приватный: Нет (DHT включён)
.torrent скачан  0
 


     Отправить личное сообщение
   
Страница 1 из 1
Показать сообщения за:  Поле сортировки  
Начать новую тему Ответить на тему


Сейчас этот форум просматривают: нет зарегистрированных пользователей и гости: 0


Вы не можете начинать темы
Вы не можете отвечать на сообщения
Вы не можете редактировать свои сообщения
Вы не можете удалять свои сообщения
Вы не можете добавлять вложения

Перейти:  
cron