Начать новую тему Ответить на тему
Статистика раздачи
Размер: 575.52 МБ | Добавлен: 26 июн 2020, 17:53 | Скачали: 0
Сидеров: 0  [0 байт/сек]    Личеров: 0  [0 байт/сек]
Пред. тема | След. тема 

Автор
Сообщение

СообщениеДобавлено: 26 июн 2020, 17:53 

Ответить с цитатой 

Dismantled - Standard Issue + Anthem [Album CD + Maxi-Single, Limited Edition Box Set]
Жанр: EBM, Industrial
Год выпуска диска: 2006
Производитель диска: Germany
Аудио кодек: APE
Тип рипа: image+.cue
Битрейт аудио: lossless
Продолжительность: 00:52:01+00:28:25
Трэклист:
Disc: 1
01. Anthem
02. Get It Through
03. No Effect
04. Breed To Death
05. Preset
06. Fields
07. Recall
08. Standard Issue
09. Attention
10. Thanks For Everything
Disc: 2
1. Anthem
2. Anthem (Stripped By Rotersand)
3. The March
4. Anthem (Steps Remix)
5. Recall
Код:
 Exact Audio Copy V0.99 prebeta 5 from 4. May 2009
Отчёт EAC об извлечении, выполненном 6. августа 2009, 15:02
Dismantled / Standard Issue (CD1)
Дисковод: Optiarc DVD RW AD-7201S   Adapter: 1  ID: 1
Режим чтения                 : Достоверность
Использование точного потока : Да
Отключение кэша аудио        : Да
Использование указателей C2  : Нет
Коррекция смещения при чтении                     : 48
Способность читать области Lead-in и Lead-out     : Нет
Заполнение пропущенных сэмплов тишиной            : Да
Удаление блоков с тишиной в начале и конце        : Нет
При вычислениях CRC использовались нулевые сэмплы : Да
Интерфейс                                         : Установленный внешний ASPI-интерфейс
Выходной формат : Внутренние WAV-операции
Формат сэмплов  : 44.100 Гц; 16 бит; стерео
TOC извлечённого CD
     Трек |   Старт  | Длительность | Начальный сектор | Конечный сектор
    ---------------------------------------------------------------------
       1  |  0:00.00 |    7:18.00   |           0      |      32849
       2  |  7:18.00 |    5:55.00   |       32850      |      59474
       3  | 13:13.00 |    5:16.00   |       59475      |      83174
       4  | 18:29.00 |    4:41.15   |       83175      |     104264
       5  | 23:10.15 |    3:54.60   |      104265      |     121874
       6  | 27:05.00 |    5:31.30   |      121875      |     146729
       7  | 32:36.30 |    4:40.53   |      146730      |     167782
       8  | 37:17.08 |    4:22.15   |      167783      |     187447
       9  | 41:39.23 |    5:00.68   |      187448      |     210015
      10  | 46:40.16 |    5:21.45   |      210016      |     234135
Характеристики диапазона извлечения и сообщения об ошибках
Выбранный диапазон
     Имя файла D:\Documents and Settings\Rodexx\Рабочий стол\Dismantled - Standard Issue\Dismantled - Standard Issue (CD1).wav
     Пиковый уровень 100.0 %
     Качество диапазона 100.0 %
     CRC теста 56027BB0
     CRC копии 56027BB0
     Копирование... OK
Ошибок не произошло
Конец отчёта
Код:
Exact Audio Copy V0.99 prebeta 5 from 4. May 2009
Отчёт EAC об извлечении, выполненном 6. августа 2009, 15:14
Dismantled / Anthem (СD2)
Дисковод: Optiarc DVD RW AD-7201S   Adapter: 1  ID: 1
Режим чтения                 : Достоверность
Использование точного потока : Да
Отключение кэша аудио        : Да
Использование указателей C2  : Нет
Коррекция смещения при чтении                     : 48
Способность читать области Lead-in и Lead-out     : Нет
Заполнение пропущенных сэмплов тишиной            : Да
Удаление блоков с тишиной в начале и конце        : Нет
При вычислениях CRC использовались нулевые сэмплы : Да
Интерфейс                                         : Установленный внешний
ASPI-интерфейс
Выходной формат : Внутренние WAV-операции
Формат сэмплов  : 44.100 Гц; 16 бит; стерео
TOC извлечённого CD
     Трек |   Старт  | Длительность | Начальный сектор | Конечный сектор
    ---------------------------------------------------------------------
       1  |  0:00.00 |    7:12.68   |           0      |      32467
       2  |  7:12.68 |    5:43.45   |       32468      |      58237
       3  | 12:56.38 |    4:20.57   |       58238      |      77794
       4  | 17:17.20 |    6:26.72   |       77795      |     106816
       5  | 23:44.17 |    4:41.21   |      106817      |     127912
Характеристики диапазона извлечения и сообщения об ошибках
Выбранный диапазон
     Имя файла D:\Documents and Settings\Rodexx\Рабочий стол\Dismantled -
Standard Issue\Dismantled - Anthem (СD2).wav
     Пиковый уровень 98.2 %
     Качество диапазона 99.9 %
     CRC теста 23A7F94F
     CRC копии 23A7F94F
     Копирование... OK
Ошибок не произошло
Конец отчёта
 
Код:
 Started at: четверг, 06. 08. 2009. - 15:19.52
1 file found
1 -===- D:\Documents and Settings\Rodexx\Рабочий стол\Dismantled - Standard Issue\Dismantled - Standard Issue (CD1).ape
  Extracted successfully
  Conclusion: this track is CDDA with probability 100%
  Tempfile successfully deleted.
Finished at: четверг, 06. 08. 2009. - 15:26.13 (operation time: 0:06.21)
Код:
Started at: четверг, 06. 08. 2009. - 15:27.21
1 file found
1 -===- D:\Documents and Settings\Rodexx\Рабочий стол\Dismantled - Standard Issue\Dismantled - Anthem (СD2).ape
  Extracted successfully
  Conclusion: this track is CDDA with probability 100%
  Tempfile successfully deleted.
Finished at: четверг, 06. 08. 2009. - 15:30.35 (operation time: 0:03.14)
Правила, инструкции, FAQ!!!
Торрент  Добавлен [26 июн 2020, 17:53] Скачать торрент Магнет ссылка
Скачать торрент
[ Размер 12.08 КБ / Просмотров 8 ]

Статус
Проверен 
 
Размер  575.52 МБ
Приватный: Нет (DHT включён)
.torrent скачан  0
 


     Отправить личное сообщение
   
Страница 1 из 1
Показать сообщения за:  Поле сортировки  
Начать новую тему Ответить на тему


Сейчас этот форум просматривают: нет зарегистрированных пользователей и гости: 0


Вы не можете начинать темы
Вы не можете отвечать на сообщения
Вы не можете редактировать свои сообщения
Вы не можете удалять свои сообщения
Вы не можете добавлять вложения

Перейти:  
cron