Начать новую тему Ответить на тему
Статистика раздачи
Размер: 433.21 МБ | Добавлен: 26 июн 2020, 20:04 | Скачали: 0
Сидеров: 0  [0 байт/сек]    Личеров: 0  [0 байт/сек]
Пред. тема | След. тема 

Автор
Сообщение

СообщениеДобавлено: 26 июн 2020, 20:04 

Ответить с цитатой 

Dismantled - Dismantled
Жанр: EBM, Industrial
Год выпуска диска: 2002
Производитель диска: США
Аудио кодек: FLAC
Тип рипа: image+.cue
Битрейт аудио: lossless
Продолжительность: 51:30.66
Трэклист:
01. Purity
02. Human
03. Dystopia
04. Survivor
05. Extirpation
06. Shift
07. Circular
08. Hypersleep
09. Subcore
Доп. информация: Американский проект, человека по имени Gary Zon. На его творчество, огромное влияние оказала группа Front Line Assembly.
Exact Audio Copy V0.99 prebeta 1 from 25. May 2007
Отчёт EAC об извлечении, выполненном 6. июля 2008, 20:09
Dismantled / Dismantled
Дисковод: PIONEER DVD-RW DVR-111D Adapter: 0 ID: 0
Режим чтения : Достоверность
Использование точного потока : Да
Отключение кэша аудио : Да
Использование указателей C2 : Нет
Коррекция смещения при чтении : 48
Способность читать области Lead-in и Lead-out : Нет
Заполнение пропущенных сэмплов тишиной : Да
Удаление блоков с тишиной в начале и конце : Нет
Интерфейс : Встроенный Win32-интерфейс для Win NT/2000
Выходной формат : Пользовательский кодировщик
Выбранный битрейт : 1024 kBit/s
Качество : Высокий
Добавление ID3-тэга : Да
Утилита сжатия : C:\Program Files\Exact Audio Copy\FLAC\FLAC.EXE
Дополнительные параметры : -6 -V -T "ARTIST=%a" -T "TITLE=%t" -T "ALBUM=%g" -T "DATE=%y" -T "TRACKNUMBER=%n" -T "GENRE=%m" -T "COMMENT=%e" %s -o %d
TOC извлечённого CD
Трек | Старт | Длительность | Начальный сектор | Конечный сектор
---------------------------------------------------------------------
1 | 0:00.00 | 6:07.04 | 0 | 27528
2 | 6:07.04 | 6:22.67 | 27529 | 56245
3 | 12:29.71 | 6:59.48 | 56246 | 87718
4 | 19:29.44 | 5:50.00 | 87719 | 113968
5 | 25:19.44 | 6:15.56 | 113969 | 142149
6 | 31:35.25 | 5:00.73 | 142150 | 164722
7 | 36:36.23 | 6:40.00 | 164723 | 194722
8 | 43:16.23 | 8:14.43 | 194723 | 231815
9 | 51:30.66 | 6:19.65 | 231816 | 260305
Характеристики диапазона извлечения и сообщения об ошибках
Выбранный диапазон
Имя файла D:\123\NEW UNREALESED\Dismantled - Dismantled [2002]\Dismantled - Dismantled.wav
Пиковый уровень 100.0 %
Качество диапазона 99.9 %
CRC теста 3EEC8972
CRC копии 3EEC8972
Копирование... OK
Ошибок не произошло
Конец отчёта
Правила, инструкции, FAQ!!!
Торрент  Добавлен [26 июн 2020, 20:04] Скачать торрент Магнет ссылка
Скачать торрент
[ Размер 17.55 КБ / Просмотров 5 ]

Статус
Проверен 
 
Размер  433.21 МБ
Приватный: Нет (DHT включён)
.torrent скачан  0
 


     Отправить личное сообщение
   
Страница 1 из 1
Показать сообщения за:  Поле сортировки  
Начать новую тему Ответить на тему


Сейчас этот форум просматривают: нет зарегистрированных пользователей и гости: 0


Вы не можете начинать темы
Вы не можете отвечать на сообщения
Вы не можете редактировать свои сообщения
Вы не можете удалять свои сообщения
Вы не можете добавлять вложения

Перейти:  
cron