Начать новую тему Ответить на тему
Статистика раздачи
Размер: 418.5 МБ | Добавлен: 26 июн 2020, 17:53 | Скачали: 0
Сидеров: 0  [0 байт/сек]    Личеров: 0  [0 байт/сек]
Пред. тема | След. тема 

Автор
Сообщение

СообщениеДобавлено: 26 июн 2020, 17:53 

Ответить с цитатой 

Dismantled - Breed to Death [ЕР]
Жанр: EBM, Industrial
Год выпуска диска: 2005
Производитель диска: USA
Аудио кодек: APE
Тип рипа: image+.cue
Битрейт аудио: lossless
Продолжительность: 00:53:39
Источник: Рип с личного СД
Трэклист:
01.Breed to Death
02.Breed to Death (Feed remix)
03.War Dream
04.The Swarm (Easy to Swallow)
05.The Swarm (Haujobb remix)
06.Straight Up (Paula Abdul Cover)
08. Breed to Death (Psyclon Nine remix)
09.The Blind
10.The Swarm (Daedal remix)
Код:
 Exact Audio Copy V0.99 prebeta 5 from 4. May 2009
Отчёт EAC об извлечении, выполненном 6. августа 2009, 14:21
Dismantled / Breed To Death
Дисковод: Optiarc DVD RW AD-7201S   Adapter: 1  ID: 1
Режим чтения                 : Достоверность
Использование точного потока : Да
Отключение кэша аудио        : Да
Использование указателей C2  : Нет
Коррекция смещения при чтении                     : 48
Способность читать области Lead-in и Lead-out     : Нет
Заполнение пропущенных сэмплов тишиной            : Да
Удаление блоков с тишиной в начале и конце        : Нет
При вычислениях CRC использовались нулевые сэмплы : Да
Интерфейс                                         : Установленный внешний ASPI-интерфейс
Выходной формат : Внутренние WAV-операции
Формат сэмплов  : 44.100 Гц; 16 бит; стерео
TOC извлечённого CD
     Трек |   Старт  | Длительность | Начальный сектор | Конечный сектор
    ---------------------------------------------------------------------
       1  |  0:00.00 |    4:36.34   |           0      |      20733
       2  |  4:36.34 |    5:22.67   |       20734      |      44950
       3  |  9:59.26 |    5:25.42   |       44951      |      69367
       4  | 15:24.68 |    5:25.09   |       69368      |      93751
       5  | 20:50.02 |    6:24.17   |       93752      |     122568
       6  | 27:14.19 |    4:10.34   |      122569      |     141352
       7  | 31:24.53 |    5:48.17   |      141353      |     167469
       8  | 37:12.70 |    4:51.25   |      167470      |     189319
       9  | 42:04.20 |    4:45.42   |      189320      |     210736
      10  | 46:49.62 |    6:49.59   |      210737      |     241470
Характеристики диапазона извлечения и сообщения об ошибках
Выбранный диапазон
     Имя файла D:\Documents and Settings\Rodexx\Рабочий стол\Dismantled-Breed to Death\Dismantled - Breed To Death.wav
     Пиковый уровень 100.0 %
     Качество диапазона 100.0 %
     CRC теста E9DB178F
     CRC копии E9DB178F
     Копирование... OK
Ошибок не произошло
Конец отчёта
Код:
Started at: четверг, 06. 08. 2009. - 14:44.18
1 file found
1 -===- D:\Documents and Settings\Rodexx\Рабочий стол\Dismantled-Breed to Death\Dismantled - Breed To Death.ape
  Extracted successfully
  Conclusion: this track is CDDA with probability 100%
  Tempfile successfully deleted.
Finished at: четверг, 06. 08. 2009. - 14:50.11 (operation time: 0:05.53)
Label: Dependent Records
Catalog#: Mind 086
Format: CD, EP
Country: Germany
Released: 25 Apr 2005
Genre: Electronic
Style: Industrial, Electro
Торент перезалит 27.03.11, добавлены сканы в качестве.
Правила, инструкции, FAQ!!!
Торрент  Добавлен [26 июн 2020, 17:53] Скачать торрент Магнет ссылка
Скачать торрент
[ Размер 17.21 КБ / Просмотров 8 ]

Статус
Проверен 
 
Размер  418.5 МБ
Приватный: Нет (DHT включён)
.torrent скачан  0
 


     Отправить личное сообщение
   
Страница 1 из 1
Показать сообщения за:  Поле сортировки  
Начать новую тему Ответить на тему


Сейчас этот форум просматривают: нет зарегистрированных пользователей и гости: 0


Вы не можете начинать темы
Вы не можете отвечать на сообщения
Вы не можете редактировать свои сообщения
Вы не можете удалять свои сообщения
Вы не можете добавлять вложения

Перейти:  
cron