Начать новую тему Ответить на тему
Статистика раздачи
Размер: 1.06 ГБ | Добавлен: 26 июн 2020, 17:00 | Скачали: 0
Сидеров: 0  [0 байт/сек]    Личеров: 0  [0 байт/сек]
Пред. тема | След. тема 

Автор
Сообщение

СообщениеДобавлено: 26 июн 2020, 17:00 

Ответить с цитатой 

Direct World Action For Japan
Жанр: EBM, Industrial
Страна-производитель диска: Japan
Год издания диска: 2011
Издатель (лейбл): Deathwatch Asia
Номер по каталогу: DWA 311
Страна: Europe
Аудиокодек: FLAC (*.flac)
Тип рипа: image+.cue
Битрейт аудио: lossless
Продолжительность: 1:15:00.72 + 1:10:25.09
Источник (релизер): Собственный рип
Наличие сканов в содержимом раздачи: нет
Треклист:
CD 1
01. Binary Park - Running (Deep8 Mix) [0:04:17.01]
02. Squarehead - Idiot (Feat. Klayton Of Celldweller) [0:04:51.04]
03. Encephalon - Daylight (Rising Sun Remix) [0:05:02.41]
04. Shiv-R - Parasite (Repossession) [0:05:51.09]
05. Soman - Noistyle (Phosgore Remix) [0:03:05.25]
06. Interface - Ability (Alternate Mix) [0:04:07.61]
07. Yade - 1529 [0:03:52.64]
08. Tyske Ludder - Über Euch [0:04:10.47]
09. Panic Lift - When Euphoria Ends [0:03:53.72]
10. Straftanz - Straftanz (Mighty Mike Saga vs Mindbender Remix) [0:04:25.23]
11. Nachtmahr - Alpha / Omega (Psionic Remix) [0:04:51.19]
12. PreEmptive Strike 01 - D-Day Demons (A7IE Remix) [0:05:14.04]
13. Project Rotten - Borrowed Time [0:05:36.62]
14. Sangsara - Pity The Innocent (Komor Kommando Remix) [0:04:38.46]
15. Inertia - Repeat and Follow (Video Mix) [0:04:55.35]
16. Be My Enemy - Disintegration v21 [0:06:07.09]

CD 2
01. X-Fusion - Divine Spite (Human Spirit Mix) [0:04:24.06]
02. Diary Of Dreams - Echo In Me [0:03:56.13]
03. Terrolokaust - Lifes Spiralling Decay [0:04:15.68]
04. In Strict Confidence - Set Me Free [0:04:30.14]
05. Vigilante (Featuring Jens Kastel) - The New World (Latexxxx Teens Remix) [0:04:20.34]
06. Dope Stars Inc. - Banksters [0:02:45.09]
07. Die Sektor - Accelerant (Xiescive Remix) [0:05:15.11]
08. XP8 - I Dont Want You To (Work, Prey And Obey) [0:04:28.40]
09. Detroit Diesel - Let It Be My End [0:04:20.18]
10. DYM - Bender (Die Sektor Remix) [0:03:40.67]
11. vProjekt - Antifreeze [0:04:01.47]
12. Feindflug - Ignorant [0:04:36.13]
13. Caustic - Floor Whore Disko (Terrorkode Softkore Remix) [0:04:41.40]
14. Modulate - Faktory [0:05:09.04]
15. Suicidal Romance - Star (Jan Moser Edit) [0:05:23.41]
16. Soman - Skin Deep (The Synthetic Dream Foundation Remix) [0:04:36.34]
Код:
Exact Audio Copy V1.0 beta 3 from 29. August 2011
Отчёт EAC об извлечении, выполненном 25. ноября 2011, 23:02
Various / Direct World Action (Disc 1)
Дисковод: TSSTcorpCDDVDW SH-S223C   Adapter: 1  ID: 0
Режим чтения                 : Достоверность
Использование точного потока : Да
Отключение кэша аудио        : Да
Использование указателей C2  : Нет
Коррекция смещения при чтении                     : 697
Способность читать области Lead-in и Lead-out     : Нет
Заполнение пропущенных сэмплов тишиной            : Да
Удаление блоков с тишиной в начале и конце        : Нет
При вычислениях CRC использовались нулевые сэмплы : Да
Интерфейс                                         : Встроенный Win32-интерфейс для Win NT/2000
Выходной формат          : Пользовательский кодировщик
Выбранный битрейт        : 768 kBit/s
Качество                 : Высокий
Добавление ID3-тега      : Нет
Утилита сжатия           : C:\Program Files\Exact Audio Copy\FLAC\FLAC.EXE
Дополнительные параметры : -6 -V -T "ARTIST=%artist%" -T "TITLE=%title%" -T "ALBUM=%albumtitle%" -T "DATE=%year%" -T "TRACKNUMBER=%tracknr%" -T "GENRE=%genre%" -T "COMMENT=%comment%" -T "BAND=%albuminterpret%" -T "ALBUMARTIST=%albuminterpret%" -T "COMPOSER=%composer%" %haslyrics%--tag-from-file=LYRICS="%lyricsfile%"%haslyrics% -T "DISCNUMBER=%cdnumber%" -T "TOTALDISCS=%totalcds%" -T "TOTALTRACKS=%numtracks%" %hascover%--picture="%coverfile%"%hascover% %source% -o %dest%
TOC извлечённого CD
     Трек |   Старт  | Длительность | Начальный сектор | Конечный сектор
    ---------------------------------------------------------------------
       1  |  0:00.00 |    4:17.01   |           0      |      19275
       2  |  4:17.01 |    4:51.04   |       19276      |      41104
       3  |  9:08.05 |    5:02.41   |       41105      |      63795
       4  | 14:10.46 |    5:51.09   |       63796      |      90129
       5  | 20:01.55 |    3:05.25   |       90130      |     104029
       6  | 23:07.05 |    4:07.61   |      104030      |     122615
       7  | 27:14.66 |    3:52.64   |      122616      |     140079
       8  | 31:07.55 |    4:10.47   |      140080      |     158876
       9  | 35:18.27 |    3:53.72   |      158877      |     176423
      10  | 39:12.24 |    4:25.23   |      176424      |     196321
      11  | 43:37.47 |    4:51.19   |      196322      |     218165
      12  | 48:28.66 |    5:14.04   |      218166      |     241719
      13  | 53:42.70 |    5:36.62   |      241720      |     266981
      14  | 59:19.57 |    4:38.46   |      266982      |     287877
      15  | 63:58.28 |    4:55.35   |      287878      |     310037
      16  | 68:53.63 |    6:07.09   |      310038      |     337571
Характеристики диапазона извлечения и сообщения об ошибках
Выбранный диапазон
     Имя файла C:\EAC\VA - Direct World Action For Japan (2011 Deathwatch Asia – DWA 311)(Lossless)\CD 1\Various - Direct World Action (Disc 1).wav
     Пиковый уровень 100.0 %
     Скорость извлечения 3.5 X
     Качество диапазона 99.9 %
     CRC теста C3307AE9
     CRC копии C3307AE9
     Копирование... OK
Ошибок не произошло
AccurateRip: сводка
Трек  1  отсутствует в базе данных
Трек  2  отсутствует в базе данных
Трек  3  отсутствует в базе данных
Трек  4  отсутствует в базе данных
Трек  5  отсутствует в базе данных
Трек  6  отсутствует в базе данных
Трек  7  отсутствует в базе данных
Трек  8  отсутствует в базе данных
Трек  9  отсутствует в базе данных
Трек 10  отсутствует в базе данных
Трек 11  отсутствует в базе данных
Трек 12  отсутствует в базе данных
Трек 13  отсутствует в базе данных
Трек 14  отсутствует в базе данных
Трек 15  отсутствует в базе данных
Трек 16  отсутствует в базе данных
Ни одного трека нет в базе AccurateRip
Конец отчёта
==== Контрольная сумма отчёта 3CE95E01202576AD2C1333CCDFAE594285AED3696BB2FD4F4706AB72C9464B5F ====
Код:
Exact Audio Copy V1.0 beta 3 from 29. August 2011
Отчёт EAC об извлечении, выполненном 26. ноября 2011, 0:09
Various / Direct World Action (Disc 2)
Дисковод: TSSTcorpCDDVDW SH-S223C   Adapter: 1  ID: 0
Режим чтения                 : Достоверность
Использование точного потока : Да
Отключение кэша аудио        : Да
Использование указателей C2  : Нет
Коррекция смещения при чтении                     : 697
Способность читать области Lead-in и Lead-out     : Нет
Заполнение пропущенных сэмплов тишиной            : Да
Удаление блоков с тишиной в начале и конце        : Нет
При вычислениях CRC использовались нулевые сэмплы : Да
Интерфейс                                         : Встроенный Win32-интерфейс для Win NT/2000
Выходной формат          : Пользовательский кодировщик
Выбранный битрейт        : 768 kBit/s
Качество                 : Высокий
Добавление ID3-тега      : Нет
Утилита сжатия           : C:\Program Files\Exact Audio Copy\FLAC\FLAC.EXE
Дополнительные параметры : -6 -V -T "ARTIST=%artist%" -T "TITLE=%title%" -T "ALBUM=%albumtitle%" -T "DATE=%year%" -T "TRACKNUMBER=%tracknr%" -T "GENRE=%genre%" -T "COMMENT=%comment%" -T "BAND=%albuminterpret%" -T "ALBUMARTIST=%albuminterpret%" -T "COMPOSER=%composer%" %haslyrics%--tag-from-file=LYRICS="%lyricsfile%"%haslyrics% -T "DISCNUMBER=%cdnumber%" -T "TOTALDISCS=%totalcds%" -T "TOTALTRACKS=%numtracks%" %hascover%--picture="%coverfile%"%hascover% %source% -o %dest%
TOC извлечённого CD
     Трек |   Старт  | Длительность | Начальный сектор | Конечный сектор
    ---------------------------------------------------------------------
       1  |  0:00.00 |    4:24.06   |           0      |      19805
       2  |  4:24.06 |    3:56.13   |       19806      |      37518
       3  |  8:20.19 |    4:15.68   |       37519      |      56711
       4  | 12:36.12 |    4:30.14   |       56712      |      76975
       5  | 17:06.26 |    4:20.34   |       76976      |      96509
       6  | 21:26.60 |    2:45.09   |       96510      |     108893
       7  | 24:11.69 |    5:15.11   |      108894      |     132529
       8  | 29:27.05 |    4:28.40   |      132530      |     152669
       9  | 33:55.45 |    4:20.18   |      152670      |     172187
      10  | 38:15.63 |    3:40.67   |      172188      |     188754
      11  | 41:56.55 |    4:01.47   |      188755      |     206876
      12  | 45:58.27 |    4:36.13   |      206877      |     227589
      13  | 50:34.40 |    4:41.40   |      227590      |     248704
      14  | 55:16.05 |    5:09.04   |      248705      |     271883
      15  | 60:25.09 |    5:23.41   |      271884      |     296149
      16  | 65:48.50 |    4:36.34   |      296150      |     316883
Характеристики диапазона извлечения и сообщения об ошибках
Выбранный диапазон
     Имя файла C:\EAC\VA - Direct World Action For Japan (2011 Deathwatch Asia – DWA 311)(Lossless)\CD 2\Various - Direct World Action (Disc 2).wav
     Пиковый уровень 100.0 %
     Скорость извлечения 2.4 X
     Качество диапазона 100.0 %
     CRC теста 4826F6F2
     CRC копии 4826F6F2
     Копирование... OK
Ошибок не произошло
AccurateRip: сводка
Трек  1  отсутствует в базе данных
Трек  2  отсутствует в базе данных
Трек  3  отсутствует в базе данных
Трек  4  отсутствует в базе данных
Трек  5  отсутствует в базе данных
Трек  6  отсутствует в базе данных
Трек  7  отсутствует в базе данных
Трек  8  отсутствует в базе данных
Трек  9  отсутствует в базе данных
Трек 10  отсутствует в базе данных
Трек 11  отсутствует в базе данных
Трек 12  отсутствует в базе данных
Трек 13  отсутствует в базе данных
Трек 14  отсутствует в базе данных
Трек 15  отсутствует в базе данных
Трек 16  отсутствует в базе данных
Ни одного трека нет в базе AccurateRip
Конец отчёта
==== Контрольная сумма отчёта F795399FB4227D80AD3D2DC00BD7D0CD7921B494DBBD48C314F7B9034F0D1A66 ====
Код:
REM GENRE Industrial
REM DATE 2011
REM DISCID D5119410
REM COMMENT "ExactAudioCopy v1.0b3"
PERFORMER "Various"
TITLE "Direct World Action (Disc 1)"
FILE "Various - Direct World Action (Disc 1).flac" WAVE
  TRACK 01 AUDIO
    TITLE "Binary Park - Running (Deep8 Mix)"
    PERFORMER "Various"
    INDEX 01 00:00:00
  TRACK 02 AUDIO
    TITLE "Squarehead - Idiot (Feat. Klayton Of Celldweller)"
    PERFORMER "Various"
    INDEX 00 04:16:63
    INDEX 01 04:17:01
  TRACK 03 AUDIO
    TITLE "Encephalon - Daylight (Rising Sun Remix)"
    PERFORMER "Various"
    INDEX 00 09:06:06
    INDEX 01 09:08:05
  TRACK 04 AUDIO
    TITLE "Shiv-R - Parasite (Repossession)"
    PERFORMER "Various"
    INDEX 00 14:10:29
    INDEX 01 14:10:46
  TRACK 05 AUDIO
    TITLE "Soman - Noistyle (Phosgore Remix)"
    PERFORMER "Various"
    INDEX 00 19:59:56
    INDEX 01 20:01:55
  TRACK 06 AUDIO
    TITLE "Interface - Ability (Alternate Mix)"
    PERFORMER "Various"
    INDEX 00 23:06:69
    INDEX 01 23:07:05
  TRACK 07 AUDIO
    TITLE "Yade - 1529"
    PERFORMER "Various"
    INDEX 00 27:14:34
    INDEX 01 27:14:66
  TRACK 08 AUDIO
    TITLE "Tyske Ludder - Uber Euch"
    PERFORMER "Various"
    INDEX 00 31:07:53
    INDEX 01 31:07:55
  TRACK 09 AUDIO
    TITLE "Panic Lift - When Euphoria Ends"
    PERFORMER "Various"
    INDEX 00 35:18:22
    INDEX 01 35:18:27
  TRACK 10 AUDIO
    TITLE "Straftanz - Straftanz (Mighty Mike Saga vs Mindbender Remix)"
    PERFORMER "Various"
    INDEX 00 39:11:47
    INDEX 01 39:12:24
  TRACK 11 AUDIO
    TITLE "Omega (Psionic Remix)"
    PERFORMER "Nachtmahr - Alpha"
    INDEX 00 43:37:40
    INDEX 01 43:37:47
  TRACK 12 AUDIO
    TITLE "PreEmptive Strike 01 -  D-Day Demons (A7IE Remix)"
    PERFORMER "Various"
    INDEX 00 48:27:52
    INDEX 01 48:28:66
  TRACK 13 AUDIO
    TITLE "Project Rotten - Borrowed Time"
    PERFORMER "Various"
    INDEX 00 53:40:71
    INDEX 01 53:42:70
  TRACK 14 AUDIO
    TITLE "Sangsara - Pity The Innocent (Komor Kommando Remix)"
    PERFORMER "Various"
    INDEX 00 59:17:58
    INDEX 01 59:19:57
  TRACK 15 AUDIO
    TITLE "Inertia - Repeat and Follow (Video Mix)"
    PERFORMER "Various"
    INDEX 00 63:58:19
    INDEX 01 63:58:28
  TRACK 16 AUDIO
    TITLE "Be My Enemy - Disintegration v21"
    PERFORMER "Various"
    INDEX 00 68:53:37
    INDEX 01 68:53:63
Код:
REM GENRE Industrial
REM DATE 2011
REM DISCID EA108110
REM COMMENT "ExactAudioCopy v1.0b3"
PERFORMER "Various"
TITLE "Direct World Action (Disc 2)"
FILE "Various - Direct World Action (Disc 2).flac" WAVE
  TRACK 01 AUDIO
    TITLE "X-Fusion - Divine Spite (Human Spirit Mix)"
    PERFORMER "Various"
    INDEX 01 00:00:00
  TRACK 02 AUDIO
    TITLE "Diary Of Dreams - Echo In Me"
    PERFORMER "Various"
    INDEX 00 04:23:71
    INDEX 01 04:24:06
  TRACK 03 AUDIO
    TITLE "Terrolokaust - Lifes Spiralling Decay"
    PERFORMER "Various"
    INDEX 00 08:20:16
    INDEX 01 08:20:19
  TRACK 04 AUDIO
    TITLE "In Strict Confidence - Set Me Free"
    PERFORMER "Various"
    INDEX 00 12:36:06
    INDEX 01 12:36:12
  TRACK 05 AUDIO
    TITLE "Vigilante (Featuring Jens Kastel) - The New World (Latexxxx Teens Remix)"
    PERFORMER "Various"
    INDEX 00 17:06:01
    INDEX 01 17:06:26
  TRACK 06 AUDIO
    TITLE "Dope Stars Inc. - Banksters"
    PERFORMER "Various"
    INDEX 00 21:26:09
    INDEX 01 21:26:60
  TRACK 07 AUDIO
    TITLE "Die Sektor - Accelerant (Xiescive Remix)"
    PERFORMER "Various"
    INDEX 00 24:11:61
    INDEX 01 24:11:69
  TRACK 08 AUDIO
    TITLE "XP8 - I Dont Want You To (Work, Prey And Obey)"
    PERFORMER "Various"
    INDEX 00 29:26:72
    INDEX 01 29:27:05
  TRACK 09 AUDIO
    TITLE "Detroit Diesel - Let It Be My End"
    PERFORMER "Various"
    INDEX 00 33:55:35
    INDEX 01 33:55:45
  TRACK 10 AUDIO
    TITLE "DYM - Bender (Die Sektor Remix)"
    PERFORMER "Various"
    INDEX 00 38:15:44
    INDEX 01 38:15:63
  TRACK 11 AUDIO
    TITLE "vProjekt - Antifreeze"
    PERFORMER "Various"
    INDEX 00 41:56:38
    INDEX 01 41:56:55
  TRACK 12 AUDIO
    TITLE "Feindflug - Ignorant"
    PERFORMER "Various"
    INDEX 00 45:58:25
    INDEX 01 45:58:27
  TRACK 13 AUDIO
    TITLE "Caustic - Floor Whore Disko (Terrorkode Softkore Remix)"
    PERFORMER "Various"
    INDEX 00 50:32:41
    INDEX 01 50:34:40
  TRACK 14 AUDIO
    TITLE "Modulate - Faktory"
    PERFORMER "Various"
    INDEX 00 55:15:65
    INDEX 01 55:16:05
  TRACK 15 AUDIO
    TITLE "Suicidal Romance - Star (Jan Moser Edit)"
    PERFORMER "Various"
    INDEX 00 60:23:10
    INDEX 01 60:25:09
  TRACK 16 AUDIO
    TITLE "Soman - Skin Deep (The Synthetic Dream Foundation Remix)"
    PERFORMER "Various"
    INDEX 00 65:47:28
    INDEX 01 65:48:50



[/pre]


Правила, инструкции, FAQ!!!
Торрент  Добавлен [26 июн 2020, 17:00] Скачать торрент Магнет ссылка
Скачать торрент
[ Размер 12.14 КБ / Просмотров 1 ]

Статус
Проверен 
 
Размер  1.06 ГБ
Приватный: Нет (DHT включён)
.torrent скачан  0
 


     Отправить личное сообщение
   
Страница 1 из 1
Показать сообщения за:  Поле сортировки  
Начать новую тему Ответить на тему


Сейчас этот форум просматривают: нет зарегистрированных пользователей и гости: 0


Вы не можете начинать темы
Вы не можете отвечать на сообщения
Вы не можете редактировать свои сообщения
Вы не можете удалять свои сообщения
Вы не можете добавлять вложения

Перейти:  
cron