Начать новую тему Ответить на тему
Статистика раздачи
Размер: 309.75 МБ | Добавлен: 26 июн 2020, 19:04 | Скачали: 0
Сидеров: 0  [0 байт/сек]    Личеров: 0  [0 байт/сек]
Пред. тема | След. тема 

Автор
Сообщение

СообщениеДобавлено: 26 июн 2020, 19:04 

Ответить с цитатой 

Die Krupps - Entering The Arena
Жанр: EBM,Industrial
Год выпуска диска: 1993
Производитель диска: Sweden
Аудио кодек: FLAC
Тип рипа: image+.cue
Битрейт аудио: lossless
Продолжительность: 44min 29sek
Трэклист:
1. Risk
2. The Rise & Fall
3. Communication Breakdown
4. Risky Soul Version
5. Gladiators
6. Your Voice
7. Communications Breakdown (Don't Speak Version)
8. This Day Is Not The Last
9. Risk (Operatic Intro)
10. Risk (Metallic Outro)
Доп. информация: http://www.discogs.com/Die-Krupps-Entering-The-Arena/release/506986
Диск мой. Сканы внутри.
Exact Audio Copy V0.99 prebeta 5 from 4. May 2009
Отчёт EAC об извлечении, выполненном 16. декабря 2009, 21:43
Die Krupps / Entering The Arena
Дисковод: TSSTcorpCD/DVDW SH-S182M Adapter: 0 ID: 0
Режим чтения : Достоверность
Использование точного потока : Да
Отключение кэша аудио : Да
Использование указателей C2 : Нет
Коррекция смещения при чтении : 6
Способность читать области Lead-in и Lead-out : Нет
Заполнение пропущенных сэмплов тишиной : Да
Удаление блоков с тишиной в начале и конце : Нет
При вычислениях CRC использовались нулевые сэмплы : Да
Интерфейс : Встроенный Win32-интерфейс для Win NT/2000
Выходной формат : Пользовательский кодировщик
Выбранный битрейт : 768 kBit/s
Качество : Высокий
Добавление ID3-тэга : Нет
Утилита сжатия : C:\Program Files\Exact Audio Copy\FLAC\FLAC.EXE
Дополнительные параметры : -6 -V -T "ARTIST=%a" -T "TITLE=%t" -T "ALBUM=%g" -T "DATE=%y" -T "TRACKNUMBER=%n" -T "GENRE=%m" -T "COMMENT=%e" %s -o %d
TOC извлечённого CD
Трек | Старт | Длительность | Начальный сектор | Конечный сектор
---------------------------------------------------------------------
1 | 0:00.00 | 3:54.38 | 0 | 17587
2 | 3:54.38 | 5:32.35 | 17588 | 42522
3 | 9:26.73 | 3:02.62 | 42523 | 56234
4 | 12:29.60 | 6:34.45 | 56235 | 85829
5 | 19:04.30 | 5:26.55 | 85830 | 110334
6 | 24:31.10 | 5:38.00 | 110335 | 135684
7 | 30:09.10 | 3:12.00 | 135685 | 150084
8 | 33:21.10 | 3:55.58 | 150085 | 167767
9 | 37:16.68 | 3:52.67 | 167768 | 185234
10 | 41:09.60 | 3:17.48 | 185235 | 200057
Характеристики диапазона извлечения и сообщения об ошибках
Выбранный диапазон
Имя файла C:\Documents and Settings\User\Мои документы\Code\1993 Die Krupps Entering The Arena\Die Krupps - Entering The Arena.wav
Пиковый уровень 99.0 %
Качество диапазона 100.0 %
CRC теста 7DD2B196
CRC копии 7DD2B196
Копирование... OK
Ошибок не произошло
AccurateRip: сводка
Трек 1 точное извлечение (доверие 3) [7C2ECDD9]
Трек 2 точное извлечение (доверие 2) [159CC1D9]
Трек 3 точное извлечение (доверие 3) [1F574B89]
Трек 4 точное извлечение (доверие 3) [CDA965CB]
Трек 5 точное извлечение (доверие 3) [06DDBB8D]
Трек 6 точное извлечение (доверие 3) [CB90535D]
Трек 7 точное извлечение (доверие 3) [AA433E16]
Трек 8 точное извлечение (доверие 3) [A8BF5EA0]
Трек 9 точное извлечение (доверие 3) [822F8B33]
Трек 10 точное извлечение (доверие 3) [81556302]
Все треки извлечены точно
Конец отчёта
Правила, инструкции, FAQ!!!
Торрент  Добавлен [26 июн 2020, 19:04] Скачать торрент Магнет ссылка
Скачать торрент
[ Размер 12.9 КБ / Просмотров 10 ]

Статус
Проверен 
 
Размер  309.75 МБ
Приватный: Нет (DHT включён)
.torrent скачан  0
 


     Отправить личное сообщение
   
Страница 1 из 1
Показать сообщения за:  Поле сортировки  
Начать новую тему Ответить на тему


Сейчас этот форум просматривают: нет зарегистрированных пользователей и гости: 0


Вы не можете начинать темы
Вы не можете отвечать на сообщения
Вы не можете редактировать свои сообщения
Вы не можете удалять свои сообщения
Вы не можете добавлять вложения

Перейти:  
cron