Начать новую тему Ответить на тему
Статистика раздачи
Размер: 583.43 МБ | Добавлен: 26 июн 2020, 17:45 | Скачали: 0
Сидеров: 0  [0 байт/сек]    Личеров: 0  [0 байт/сек]
Пред. тема | След. тема 

Автор
Сообщение

СообщениеДобавлено: 26 июн 2020, 17:45 

Ответить с цитатой 

Detroit Diesel / Terre Humaine
Жанр: EBM, Industrial
Страна-производитель диска: Germany
Год издания диска: 2010
Издатель (лейбл): Infacted Recordings
Номер по каталогу: FACT 3162
Страна: Canada
Аудио кодек: FLAC (*.flac)
Тип рипа: image+.cue
Битрейт аудио: lossless
Продолжительность: 1:15:30.59
Источник (релизер): CD из личной коллекции.
Наличие сканов в содержимом раздачи: да
Треклист:
01. Normandy 4:26
02. Serenade 3:57
03. Lost Signal 4:25
04. Field Of The Dead 4:59
05. Not Yet 5:39
06. All Lost Before Dawn 5:05
07. Terre Humaine 4:18
08. Bring Me Noise 3:26
09. The Game 4:19
10. Zwanziger 4:37
11. Ruins 4:35
12. Red Rebels 5:14
13. Serenade (C-Lekktor Remix) 4:40
14. All Lost Before Dawn (FGFC820 Remix) 5:37
15. Lost Signal (Soman Remix) 4:51
16. All Lost Before Dawn (Die Sektor Remix) 5:15
Код:
Exact Audio Copy V0.99 prebeta 5 from 4. May 2009
Отчёт EAC об извлечении, выполненном 11. декабря 2010, 21:21
Detroit Diesel / Terre Humaine
Дисковод: TSSTcorpCDDVDW TS-L632H   Adapter: 0  ID: 0
Режим чтения                 : Достоверность
Использование точного потока : Да
Отключение кэша аудио        : Да
Использование указателей C2  : Нет
Коррекция смещения при чтении                     : 6
Способность читать области Lead-in и Lead-out     : Нет
Заполнение пропущенных сэмплов тишиной            : Да
Удаление блоков с тишиной в начале и конце        : Нет
При вычислениях CRC использовались нулевые сэмплы : Да
Интерфейс                                         : Встроенный Win32-интерфейс для Win NT/2000
Выходной формат          : Пользовательский кодировщик
Выбранный битрейт        : 1024 kBit/s
Качество                 : Высокий
Добавление ID3-тэга      : Нет
Утилита сжатия           : C:\Program Files\Exact Audio Copy\FLAC\FLAC.EXE
Дополнительные параметры : -6 -V -T "ARTIST=%a" -T "TITLE=%t" -T "ALBUM=%g" -T "DATE=%y" -T "TRACKNUMBER=%n" -T "GENRE=%m" -T "COMMENT=%e" %s -o %d
TOC извлечённого CD
     Трек |   Старт  | Длительность | Начальный сектор | Конечный сектор
    ---------------------------------------------------------------------
       1  |  0:00.00 |    4:26.29   |           0      |      19978
       2  |  4:26.29 |    3:57.57   |       19979      |      37810
       3  |  8:24.11 |    4:25.50   |       37811      |      57735
       4  | 12:49.61 |    4:59.55   |       57736      |      80215
       5  | 17:49.41 |    5:39.52   |       80216      |     105692
       6  | 23:29.18 |    5:05.43   |      105693      |     128610
       7  | 28:34.61 |    4:18.10   |      128611      |     147970
       8  | 32:52.71 |    3:26.11   |      147971      |     163431
       9  | 36:19.07 |    4:19.30   |      163432      |     182886
      10  | 40:38.37 |    4:37.69   |      182887      |     203730
      11  | 45:16.31 |    4:35.48   |      203731      |     224403
      12  | 49:52.04 |    5:14.13   |      224404      |     247966
      13  | 55:06.17 |    4:40.10   |      247967      |     268976
      14  | 59:46.27 |    5:37.37   |      268977      |     294288
      15  | 65:23.64 |    4:51.59   |      294289      |     316172
      16  | 70:15.48 |    5:15.11   |      316173      |     339808
Характеристики диапазона извлечения и сообщения об ошибках
Выбранный диапазон
     Имя файла C:\Users\Алексей\Desktop\iPOD\Detroit Diesel - Terre Humaine.wav
     Пиковый уровень 100.0 %
     Качество диапазона 100.0 %
     CRC теста C60BB465
     CRC копии C60BB465
     Копирование... OK
Ошибок не произошло
AccurateRip: сводка
Трек  1  нет в базе данных
Трек  2  нет в базе данных
Трек  3  нет в базе данных
Трек  4  нет в базе данных
Трек  5  нет в базе данных
Трек  6  нет в базе данных
Трек  7  нет в базе данных
Трек  8  нет в базе данных
Трек  9  нет в базе данных
Трек 10  нет в базе данных
Трек 11  нет в базе данных
Трек 12  нет в базе данных
Трек 13  нет в базе данных
Трек 14  нет в базе данных
Трек 15  нет в базе данных
Трек 16  нет в базе данных
Ни одного трека нет в базе AccurateRip
Конец отчёта
Код:
REM GENRE Industrial
REM DATE 2010
REM DISCID E711B210
REM COMMENT "ExactAudioCopy v0.99pb5"
PERFORMER "Detroit Diesel"
TITLE "Terre Humaine"
FILE "Detroit Diesel - Terre Humaine.flac" WAVE
  TRACK 01 AUDIO
    TITLE "Normandy"
    PERFORMER "Detroit Diesel"
    INDEX 01 00:00:00
  TRACK 02 AUDIO
    TITLE "Serenade"
    PERFORMER "Detroit Diesel"
    INDEX 00 04:24:29
    INDEX 01 04:26:29
  TRACK 03 AUDIO
    TITLE "Lost Signal"
    PERFORMER "Detroit Diesel"
    INDEX 00 08:23:57
    INDEX 01 08:24:11
  TRACK 04 AUDIO
    TITLE "Field Of The Dead"
    PERFORMER "Detroit Diesel"
    INDEX 00 12:49:09
    INDEX 01 12:49:61
  TRACK 05 AUDIO
    TITLE "Not Yet"
    PERFORMER "Detroit Diesel"
    INDEX 00 17:47:42
    INDEX 01 17:49:41
  TRACK 06 AUDIO
    TITLE "All Lost Before Dawn"
    PERFORMER "Detroit Diesel"
    INDEX 00 23:28:62
    INDEX 01 23:29:18
  TRACK 07 AUDIO
    TITLE "Terre Humaine"
    PERFORMER "Detroit Diesel"
    INDEX 00 28:33:73
    INDEX 01 28:34:61
  TRACK 08 AUDIO
    TITLE "Bring Me Noise"
    PERFORMER "Detroit Diesel"
    INDEX 00 32:52:46
    INDEX 01 32:52:71
  TRACK 09 AUDIO
    TITLE "The Game"
    PERFORMER "Detroit Diesel"
    INDEX 00 36:18:56
    INDEX 01 36:19:07
  TRACK 10 AUDIO
    TITLE "Zwanziger"
    PERFORMER "Detroit Diesel"
    INDEX 00 40:38:21
    INDEX 01 40:38:37
  TRACK 11 AUDIO
    TITLE "Ruins"
    PERFORMER "Detroit Diesel"
    INDEX 00 45:14:32
    INDEX 01 45:16:31
  TRACK 12 AUDIO
    TITLE "Red Rebels"
    PERFORMER "Detroit Diesel"
    INDEX 00 49:51:14
    INDEX 01 49:52:04
  TRACK 13 AUDIO
    TITLE "Serenade (C-LEKKTOR Remix)"
    PERFORMER "Detroit Diesel"
    INDEX 00 55:04:18
    INDEX 01 55:06:17
  TRACK 14 AUDIO
    TITLE "All Lost Before Dawn (FGFC820 Remix)"
    PERFORMER "Detroit Diesel"
    INDEX 00 59:45:46
    INDEX 01 59:46:27
  TRACK 15 AUDIO
    TITLE "Lost Signal (SOMAN Remix)"
    PERFORMER "Detroit Diesel"
    INDEX 00 65:21:65
    INDEX 01 65:23:64
  TRACK 16 AUDIO
    TITLE "All Lost Before Dawn (DIE SEKTOR Remix)"
    PERFORMER "Detroit Diesel"
    INDEX 00 70:13:49
    INDEX 01 70:15:48
Код:
[url=https://fastpic.ru/view/14/2010/1225/569757db54f86ff699b8970019bfd4d1.jpg.html][img]http://i14.fastpic.ru/thumb/2010/1225/d1/569757db54f86ff699b8970019bfd4d1.jpeg[/img][/url]
ВНИМАНИЕ!!! ATTENTION!!! ACHTUNG!!!
Качаем аккуратно!!! Клубноориентированное Dark Electro с элементами TBM!!!
Discogs говорит только о японском издании.
Здесь европейское издание.
ОГРОМНАЯ БЛАГОДАРНОСТЬ НАШЕМУ КОЛЛЕГЕ KERGARN`у ЗА СКАНЫ!!!
Правила, инструкции, FAQ!!!
Торрент  Добавлен [26 июн 2020, 17:45] Скачать торрент Магнет ссылка
Скачать торрент
[ Размер 12.51 КБ / Просмотров 8 ]

Статус
Проверен 
 
Размер  583.43 МБ
Приватный: Нет (DHT включён)
.torrent скачан  0
 


     Отправить личное сообщение
   
Страница 1 из 1
Показать сообщения за:  Поле сортировки  
Начать новую тему Ответить на тему


Сейчас этот форум просматривают: нет зарегистрированных пользователей и гости: 0


Вы не можете начинать темы
Вы не можете отвечать на сообщения
Вы не можете редактировать свои сообщения
Вы не можете удалять свои сообщения
Вы не можете добавлять вложения

Перейти:  
cron