Начать новую тему Ответить на тему
Статистика раздачи
Размер: 388.33 МБ | Добавлен: 26 июн 2020, 17:00 | Скачали: 0
Сидеров: 0  [0 байт/сек]    Личеров: 0  [0 байт/сек]
Пред. тема | След. тема 

Автор
Сообщение

СообщениеДобавлено: 26 июн 2020, 17:00 

Ответить с цитатой 

Defcon - Endsong
Жанр: EBM / Industrial
Год выпуска диска: 2006
Производитель диска: US
Аудио кодек: APE
Тип рипа: image+.cue
Битрейт аудио: lossless
Продолжительность: 55:55
Трэклист:
1 Roentgen (1:53)
2 Low Survivability (6:01)
3 Life Support (4:51)
4 Retribution (5:17)
5 The First Wave (5:00)
6 Bloody Hands (4:13)
7 Machine Code (5:10)
8 Readiness (4:12)
9 Sent To God (4:43)
10 Technospiracy (4:39)
11 Man's End (4:08)
12 Human Remains (5:43)
Доп. информация: Negative Gain Productions; NGP80701
DEFCON is the official side project of Cruciform Injection guitar player Brendan7 and Cohort Aleks.
The project embraces the possibility of nuclear war as an inevitable consequence of irresponsible international nuclear policy, and proactively prepares for, and accepts the apocalypse not as a fashion option, but as a complete lifestyle.
Код:
Exact Audio Copy V0.99 prebeta 4 from 23. February 2008
EAC extraction logfile from 10. February 2009, 11:54
Defcon / Endsong
Used drive  : TEAC    DV-W520GS   Adapter: 5  ID: 0
Read mode               : Secure
Utilize accurate stream : Yes
Defeat audio cache      : Yes
Make use of C2 pointers : No
Read offset correction                      : 6
Overread into Lead-In and Lead-Out          : No
Fill up missing offset samples with silence : Yes
Delete leading and trailing silent blocks   : No
Null samples used in CRC calculations       : Yes
Used interface                              : Installed external ASPI interface
Used output format : Internal WAV Routines
Sample format      : 44.100 Hz; 16 Bit; Stereo
TOC of the extracted CD
     Track |   Start  |  Length  | Start sector | End sector
    ---------------------------------------------------------
        1  |  0:00.00 |  1:53.29 |         0    |     8503
        2  |  1:53.29 |  6:01.24 |      8504    |    35602
        3  |  7:54.53 |  4:51.71 |     35603    |    57498
        4  | 12:46.49 |  5:17.03 |     57499    |    81276
        5  | 18:03.52 |  5:00.09 |     81277    |   103785
        6  | 23:03.61 |  4:13.31 |    103786    |   122791
        7  | 27:17.17 |  5:10.03 |    122792    |   146044
        8  | 32:27.20 |  4:12.62 |    146045    |   165006
        9  | 36:40.07 |  4:43.68 |    165007    |   186299
       10  | 41:24.00 |  4:39.59 |    186300    |   207283
       11  | 46:03.59 |  4:08.62 |    207284    |   225945
       12  | 50:12.46 |  5:43.25 |    225946    |   251695
Range status and errors
Selected range
   Filename H:\Defcon - Endsong\CDImage.wav
   Peak level 96.7 %
   Range quality 100.0 %
   Test CRC 2900F1C5
   Copy CRC 2900F1C5
   Copy OK
No errors occurred
AccurateRip summary
Track  1  not present in database
Track  2  not present in database
Track  3  not present in database
Track  4  not present in database
Track  5  not present in database
Track  6  not present in database
Track  7  not present in database
Track  8  not present in database
Track  9  not present in database
Track 10  not present in database
Track 11  not present in database
Track 12  not present in database
None of the tracks are present in the AccurateRip database
End of status report
Код:
AUDIOCHECKER v2.0 beta (build 457) - by Dester - opdester@freemail.hu
~~~~~~~~~~~~~~~~~~~~~~~~~~~~~~~~~~
-=== DO NOT EDIT THIS FILE! ===-
Path: ...\Defcon - Endsong
01 -=- CDImage.wav -=- CDDA (100%)
190127764
Cканы в комплекте.
Не забываем про спасибы.
Правила, инструкции, FAQ!!!
Торрент  Добавлен [26 июн 2020, 17:00] Скачать торрент Магнет ссылка
Скачать торрент
[ Размер 15.95 КБ / Просмотров 3 ]

Статус
Проверен 
 
Размер  388.33 МБ
Приватный: Нет (DHT включён)
.torrent скачан  0
 


     Отправить личное сообщение
   
Страница 1 из 1
Показать сообщения за:  Поле сортировки  
Начать новую тему Ответить на тему


Сейчас этот форум просматривают: нет зарегистрированных пользователей и гости: 0


Вы не можете начинать темы
Вы не можете отвечать на сообщения
Вы не можете редактировать свои сообщения
Вы не можете удалять свои сообщения
Вы не можете добавлять вложения

Перейти:  
cron