Начать новую тему Ответить на тему
Статистика раздачи
Размер: 492.3 МБ | Добавлен: 26 июн 2020, 19:55 | Скачали: 0
Сидеров: 0  [0 байт/сек]    Личеров: 0  [0 байт/сек]
Пред. тема | След. тема 

Автор
Сообщение

СообщениеДобавлено: 26 июн 2020, 19:55 

Ответить с цитатой 

Decoded Feedback - Overdosing 1996[Remastered Edition]
Жанр: EBM, Industrial
Год выпуска диска: 2002
Производитель диска: Germany
Аудио кодек: APE
Тип рипа: image+.cue
Битрейт аудио: lossless
Продолжительность: 01:11:44
Трэклист:
01. Mother Tenebrarum 4:43
02. Deathcall 4:47
03. Deep Emotion 6:27
04. Birth Of A Nation 5:11
05. Fear (ATD Remix) 3:56
06. Prophecy 5:13
07. Technophoby 4:17
08. No Way Out 5:57
09. Overdosing 5:37
10. Coming Down 4:00
11. Dream Machine 2:45
12. Red Cell 5:44
13. It's Armageddon 4:42
14. Fall - Out 4:47
15. Fear 2000 (Remix) 3:20
Код:
Exact Audio Copy V0.99 prebeta 5 from 4. May 2009
Отчёт EAC об извлечении, выполненном 28. октября 2009, 21:03
Decoded Feedback / Overdosing
Дисковод: Optiarc DVD RW AD-7201S   Adapter: 2  ID: 1
Режим чтения                 : Достоверность
Использование точного потока : Да
Отключение кэша аудио        : Да
Использование указателей C2  : Нет
Коррекция смещения при чтении                     : 48
Способность читать области Lead-in и Lead-out     : Нет
Заполнение пропущенных сэмплов тишиной            : Да
Удаление блоков с тишиной в начале и конце        : Нет
При вычислениях CRC использовались нулевые сэмплы : Да
Интерфейс                                         : Встроенный Win32-интерфейс для Win NT/2000
Выходной формат : Внутренние WAV-операции
Формат сэмплов  : 44.100 Гц; 16 бит; стерео
TOC извлечённого CD
     Трек |   Старт  | Длительность | Начальный сектор | Конечный сектор
    ---------------------------------------------------------------------
       1  |  0:00.00 |    4:43.55   |           0      |      21279
       2  |  4:43.55 |    4:49.18   |       21280      |      42972
       3  |  9:32.73 |    6:27.18   |       42973      |      72015
       4  | 16:00.16 |    5:12.32   |       72016      |      95447
       5  | 21:12.48 |    3:56.65   |       95448      |     113212
       6  | 25:09.38 |    5:13.13   |      113213      |     136700
       7  | 30:22.51 |    4:18.37   |      136701      |     156087
       8  | 34:41.13 |    5:58.18   |      156088      |     182955
       9  | 40:39.31 |    5:38.69   |      182956      |     208374
      10  | 46:18.25 |    4:03.00   |      208375      |     226599
      11  | 50:21.25 |    2:45.70   |      226600      |     239044
      12  | 53:07.20 |    5:45.73   |      239045      |     264992
      13  | 58:53.18 |    4:42.17   |      264993      |     286159
      14  | 63:35.35 |    4:47.36   |      286160      |     307720
      15  | 68:22.71 |    3:21.21   |      307721      |     322816
Характеристики диапазона извлечения и сообщения об ошибках
Выбранный диапазон
     Имя файла E:\Раздачи\Decoded Feedback - Overdosing [Remastered Edition]\Decoded Feedback -
Overdosing.wav
     Пиковый уровень 99.9 %
     Качество диапазона 99.9 %
     CRC теста BBD647C6
     CRC копии BBD647C6
     Копирование... OK
Ошибок не произошло
AccurateRip: сводка
Трек  1  точность не определена (достоверность 1)  [BF5D8298], AccurateRip вернул [49251118]
Трек  2  точность не определена (достоверность 1)  [DEAA2EF2], AccurateRip вернул [BDA0DF88]
Трек  3  точность не определена (достоверность 1)  [A64045AD], AccurateRip вернул [314CA283]
Трек  4  точность не определена (достоверность 1)  [F63C699E], AccurateRip вернул [723D9B22]
Трек  5  точность не определена (достоверность 1)  [835AF321], AccurateRip вернул [6AB4EAFD]
Трек  6  точность не определена (достоверность 1)  [B334E81A], AccurateRip вернул [7DA3EF78]
Трек  7  точность не определена (достоверность 1)  [B8ADF4A1], AccurateRip вернул [71501F67]
Трек  8  точность не определена (достоверность 1)  [5A65F66F], AccurateRip вернул [79D6013F]
Трек  9  точность не определена (достоверность 1)  [600E7762], AccurateRip вернул [8AA1A75A]
Трек 10  точность не определена (достоверность 1)  [AF56ACE9], AccurateRip вернул [174F8389]
Трек 11  точность не определена (достоверность 1)  [40C39875], AccurateRip вернул [BB1D26FB]
Трек 12  точность не определена (достоверность 1)  [CB9131DC], AccurateRip вернул [529E5BF6]
Трек 13  точность не определена (достоверность 1)  [5FA06691], AccurateRip вернул [7FF5D27D]
Трек 14  точность не определена (достоверность 1)  [C6489DD1], AccurateRip вернул [F1B9352F]
Трек 15  точность не определена (достоверность 1)  [6AC6B12C], AccurateRip вернул [71B42137]
Ни один трек не прошёл проверки на точность
В вашей базе может быть иной вариант штамповки диска
Конец отчёта
Код:
Started at: среда, 28. 10. 2009. - 21:07.49
1 file found
1 -===- E:\Раздачи\Decoded Feedback - Overdosing [Remastered Edition]\Decoded Feedback - Overdosing.ape
  Extracted successfully
  Conclusion: this track is CDDA with probability 100%
  Tempfile successfully deleted.
Finished at: среда, 28. 10. 2009. - 21:16.59 (operation time: 0:09.09)
Label:Dying Culture
Catalog#:CULT003-2
Format:CD, Album, Remastered
Country:Germany
Released:28 Jun 2002
Genre:Electronic
Style:EBM, Industrial

HQ Scans Full Complete
Правила, инструкции, FAQ!!!
Торрент  Добавлен [26 июн 2020, 19:55] Скачать торрент Магнет ссылка
Скачать торрент
[ Размер 20.1 КБ / Просмотров 6 ]

Статус
Проверен 
 
Размер  492.3 МБ
Приватный: Нет (DHT включён)
.torrent скачан  0
 


     Отправить личное сообщение
   
Страница 1 из 1
Показать сообщения за:  Поле сортировки  
Начать новую тему Ответить на тему


Сейчас этот форум просматривают: нет зарегистрированных пользователей и гости: 0


Вы не можете начинать темы
Вы не можете отвечать на сообщения
Вы не можете редактировать свои сообщения
Вы не можете удалять свои сообщения
Вы не можете добавлять вложения

Перейти:  
cron