Начать новую тему Ответить на тему
Статистика раздачи
Размер: 489.01 МБ | Добавлен: 26 июн 2020, 16:55 | Скачали: 0
Сидеров: 0  [0 байт/сек]    Личеров: 0  [0 байт/сек]
Пред. тема | След. тема 

Автор
Сообщение

СообщениеДобавлено: 26 июн 2020, 16:55 

Ответить с цитатой 

Dead Hand Projekt / Dead Hand Projekt
Жанр: EBM, Industrial
Год издания диска: 2010
Издатель (лейбл): Vendetta Music
Номер по каталогу: VM0036
Страна: US
Аудиокодек: FLAC (*.flac)
Тип рипа: tracks+.cue
Битрейт аудио: lossless
Продолжительность: 01:05:15
Источник (релизер): What.cd
Наличие сканов в содержимом раздачи: нет
Треклист:
01 The 28 Strengths Of Fear 4:40
02 Concrete 4:37
03 Lost 4:17
04 Smell Of Fear 4:18
05 Dejected 5:42
06 Hate Me 4:35
07 Horror 4:26
08 Nature Abhors A Vacuum 4:13
09 Taste 4:19
10 Not For Me 4:57
11 Club Cancer 4:31
12 Are You Happy? 4:11
13 Cyanide 3:47
14 Desultory 3:52
20 Rooster Boy 2:16
Tracks 15-19 are each 7 seconds of silence.
Код:
X Lossless Decoder version 20110312 (130.0)
XLD extraction logfile from 2011-03-23 19:29:20 -0700
Dead Hand Projekt / Dead Hand Projekt
Used drive : PLEXTOR BDDVDR PX-B310U (revision 1.07)
Ripper mode             : CDParanoia III 10.2
Disable audio cache     : OK for the drive with a cache less than 2750KiB
Make use of C2 pointers : NO
Read offset correction  : 6
Max retry count         : 100
Gap status              : Analyzed, Appended
TOC of the extracted CD
     Track |   Start  |  Length  | Start sector | End sector
    ---------------------------------------------------------
        1  | 00:00:00 | 04:40:03 |         0    |    21002
        2  | 04:40:03 | 04:36:59 |     21003    |    41761
        3  | 09:16:62 | 04:16:69 |     41762    |    61030
        4  | 13:33:56 | 04:18:00 |     61031    |    80380
        5  | 17:51:56 | 05:42:28 |     80381    |   106058
        6  | 23:34:09 | 04:34:43 |    106059    |   126651
        7  | 28:08:52 | 04:26:08 |    126652    |   146609
        8  | 32:34:60 | 04:13:17 |    146610    |   165601
        9  | 36:48:02 | 04:19:01 |    165602    |   185027
       10  | 41:07:03 | 04:56:51 |    185028    |   207278
       11  | 46:03:54 | 04:31:06 |    207279    |   227609
       12  | 50:34:60 | 04:11:24 |    227610    |   246458
       13  | 54:46:09 | 03:46:44 |    246459    |   263452
       14  | 58:32:53 | 03:52:10 |    263453    |   280862
       15  | 62:24:63 | 00:07:00 |    280863    |   281387
       16  | 62:31:63 | 00:07:00 |    281388    |   281912
       17  | 62:38:63 | 00:07:00 |    281913    |   282437
       18  | 62:45:63 | 00:07:00 |    282438    |   282962
       19  | 62:52:63 | 00:07:00 |    282963    |   283487
       20  | 62:59:63 | 02:15:41 |    283488    |   293653
AccurateRip Summary
    Disc not found in AccurateRip DB.
All Tracks
    Album gain             : -10.08 dB
    Peak                   : 1.000000
    Statistics
        Read error                           : 0
        Skipped (treated as error)           : 0
        Edge jitter error (maybe fixed)      : 0
        Atom jitter error (maybe fixed)      : 0
        Drift error (maybe fixed)            : 0
        Dropped bytes error (maybe fixed)    : 0
        Duplicated bytes error (maybe fixed) : 0
Track 01
    Filename : /Dead Hand Projekt - Dead Hand Projekt (2010) [FLAC]/01 - The 28 Strengths Of Fear.flac
    Pre-gap length : 00:02:00
    Track gain             : -9.18 dB
    Peak                   : 0.990936
    CRC32 hash (test run)  : 6454FD08
    CRC32 hash             : 6454FD08
    CRC32 hash (skip zero) : 1208D519
    AccurateRip signature  : 74ADDC5A
        ->Track not present in AccurateRip database.
    Statistics
        Read error                           : 0
        Skipped (treated as error)           : 0
        Edge jitter error (maybe fixed)      : 0
        Atom jitter error (maybe fixed)      : 0
        Drift error (maybe fixed)            : 0
        Dropped bytes error (maybe fixed)    : 0
        Duplicated bytes error (maybe fixed) : 0
        Inconsistency in error sectors       : 0
Track 02
    Filename : /Dead Hand Projekt - Dead Hand Projekt (2010) [FLAC]/02 - Concrete.flac
    Pre-gap length : 00:02:00
    Track gain             : -10.69 dB
    Peak                   : 0.988617
    CRC32 hash (test run)  : FC2AC634
    CRC32 hash             : FC2AC634
    CRC32 hash (skip zero) : 41EB563B
    AccurateRip signature  : EE332AB3
        ->Track not present in AccurateRip database.
    Statistics
        Read error                           : 0
        Skipped (treated as error)           : 0
        Edge jitter error (maybe fixed)      : 0
        Atom jitter error (maybe fixed)      : 0
        Drift error (maybe fixed)            : 0
        Dropped bytes error (maybe fixed)    : 0
        Duplicated bytes error (maybe fixed) : 0
        Inconsistency in error sectors       : 0
Track 03
    Filename : /Dead Hand Projekt - Dead Hand Projekt (2010) [FLAC]/03 - Lost.flac
    Pre-gap length : 00:02:00
    Track gain             : -8.44 dB
    Peak                   : 0.988617
    CRC32 hash (test run)  : FF210DBA
    CRC32 hash             : FF210DBA
    CRC32 hash (skip zero) : B425431D
    AccurateRip signature  : 514713E0
        ->Track not present in AccurateRip database.
    Statistics
        Read error                           : 0
        Skipped (treated as error)           : 0
        Edge jitter error (maybe fixed)      : 0
        Atom jitter error (maybe fixed)      : 0
        Drift error (maybe fixed)            : 0
        Dropped bytes error (maybe fixed)    : 0
        Duplicated bytes error (maybe fixed) : 0
        Inconsistency in error sectors       : 0
Track 04
    Filename : /Dead Hand Projekt - Dead Hand Projekt (2010) [FLAC]/04 - Smell Of Fear.flac
    Pre-gap length : 00:02:00
    Track gain             : -9.41 dB
    Peak                   : 0.999969
    CRC32 hash (test run)  : 55A96CE4
    CRC32 hash             : 55A96CE4
    CRC32 hash (skip zero) : 4EE5EE16
    AccurateRip signature  : E86F2B97
        ->Track not present in AccurateRip database.
    Statistics
        Read error                           : 0
        Skipped (treated as error)           : 0
        Edge jitter error (maybe fixed)      : 0
        Atom jitter error (maybe fixed)      : 0
        Drift error (maybe fixed)            : 0
        Dropped bytes error (maybe fixed)    : 0
        Duplicated bytes error (maybe fixed) : 0
        Inconsistency in error sectors       : 0
Track 05
    Filename : /Dead Hand Projekt - Dead Hand Projekt (2010) [FLAC]/05 - Dejected.flac
    Pre-gap length : 00:02:00
    Track gain             : -9.88 dB
    Peak                   : 0.988617
    CRC32 hash (test run)  : 35BCF05F
    CRC32 hash             : 35BCF05F
    CRC32 hash (skip zero) : 0156E71D
    AccurateRip signature  : BD507778
        ->Track not present in AccurateRip database.
    Statistics
        Read error                           : 0
        Skipped (treated as error)           : 0
        Edge jitter error (maybe fixed)      : 0
        Atom jitter error (maybe fixed)      : 0
        Drift error (maybe fixed)            : 0
        Dropped bytes error (maybe fixed)    : 0
        Duplicated bytes error (maybe fixed) : 0
        Inconsistency in error sectors       : 0
Track 06
    Filename : /Dead Hand Projekt - Dead Hand Projekt (2010) [FLAC]/06 - Hate Me.flac
    Pre-gap length : 00:02:00
    Track gain             : -11.52 dB
    Peak                   : 0.988617
    CRC32 hash (test run)  : 2B4A87D8
    CRC32 hash             : 2B4A87D8
    CRC32 hash (skip zero) : EE00937B
    AccurateRip signature  : AE6FFF8E
        ->Track not present in AccurateRip database.
    Statistics
        Read error                           : 0
        Skipped (treated as error)           : 0
        Edge jitter error (maybe fixed)      : 0
        Atom jitter error (maybe fixed)      : 0
        Drift error (maybe fixed)            : 0
        Dropped bytes error (maybe fixed)    : 0
        Duplicated bytes error (maybe fixed) : 0
        Inconsistency in error sectors       : 0
Track 07
    Filename : /Dead Hand Projekt - Dead Hand Projekt (2010) [FLAC]/07 - Horror.flac
    Pre-gap length : 00:02:00
    Track gain             : -9.07 dB
    Peak                   : 0.992645
    CRC32 hash (test run)  : F5D54292
    CRC32 hash             : F5D54292
    CRC32 hash (skip zero) : 9014C13F
    AccurateRip signature  : C42D2405
        ->Track not present in AccurateRip database.
    Statistics
        Read error                           : 0
        Skipped (treated as error)           : 0
        Edge jitter error (maybe fixed)      : 0
        Atom jitter error (maybe fixed)      : 0
        Drift error (maybe fixed)            : 0
        Dropped bytes error (maybe fixed)    : 0
        Duplicated bytes error (maybe fixed) : 0
        Inconsistency in error sectors       : 0
Track 08
    Filename : /Dead Hand Projekt - Dead Hand Projekt (2010) [FLAC]/08 - Nature.flac
    Pre-gap length : 00:02:00
    Track gain             : -10.95 dB
    Peak                   : 0.994690
    CRC32 hash (test run)  : E78A17ED
    CRC32 hash             : E78A17ED
    CRC32 hash (skip zero) : 578B8929
    AccurateRip signature  : 49BD7586
        ->Track not present in AccurateRip database.
    Statistics
        Read error                           : 0
        Skipped (treated as error)           : 0
        Edge jitter error (maybe fixed)      : 0
        Atom jitter error (maybe fixed)      : 0
        Drift error (maybe fixed)            : 0
        Dropped bytes error (maybe fixed)    : 0
        Duplicated bytes error (maybe fixed) : 0
        Inconsistency in error sectors       : 0
Track 09
    Filename : /Dead Hand Projekt - Dead Hand Projekt (2010) [FLAC]/09 - Taste.flac
    Pre-gap length : 00:02:00
    Track gain             : -10.06 dB
    Peak                   : 1.000000
    CRC32 hash (test run)  : 50673113
    CRC32 hash             : 50673113
    CRC32 hash (skip zero) : EE382EC9
    AccurateRip signature  : F7709622
        ->Track not present in AccurateRip database.
    Statistics
        Read error                           : 0
        Skipped (treated as error)           : 0
        Edge jitter error (maybe fixed)      : 0
        Atom jitter error (maybe fixed)      : 0
        Drift error (maybe fixed)            : 0
        Dropped bytes error (maybe fixed)    : 0
        Duplicated bytes error (maybe fixed) : 0
        Inconsistency in error sectors       : 0
Track 10
    Filename : /Dead Hand Projekt - Dead Hand Projekt (2010) [FLAC]/10 - Not For Me.flac
    Pre-gap length : 00:02:00
    Track gain             : -8.93 dB
    Peak                   : 0.988861
    CRC32 hash (test run)  : 3361E611
    CRC32 hash             : 3361E611
    CRC32 hash (skip zero) : C89596D6
    AccurateRip signature  : C40EA603
        ->Track not present in AccurateRip database.
    Statistics
        Read error                           : 0
        Skipped (treated as error)           : 0
        Edge jitter error (maybe fixed)      : 0
        Atom jitter error (maybe fixed)      : 0
        Drift error (maybe fixed)            : 0
        Dropped bytes error (maybe fixed)    : 0
        Duplicated bytes error (maybe fixed) : 0
        Inconsistency in error sectors       : 0
Track 11
    Filename : /Dead Hand Projekt - Dead Hand Projekt (2010) [FLAC]/11 - Club Cancer.flac
    Pre-gap length : 00:02:00
    Track gain             : -9.80 dB
    Peak                   : 0.994720
    CRC32 hash (test run)  : 143B5A3A
    CRC32 hash             : 143B5A3A
    CRC32 hash (skip zero) : 9FAFC59C
    AccurateRip signature  : A5C0F30F
        ->Track not present in AccurateRip database.
    Statistics
        Read error                           : 0
        Skipped (treated as error)           : 0
        Edge jitter error (maybe fixed)      : 0
        Atom jitter error (maybe fixed)      : 0
        Drift error (maybe fixed)            : 0
        Dropped bytes error (maybe fixed)    : 0
        Duplicated bytes error (maybe fixed) : 0
        Inconsistency in error sectors       : 0
Track 12
    Filename : /Dead Hand Projekt - Dead Hand Projekt (2010) [FLAC]/12 - Are You Happy.flac
    Pre-gap length : 00:02:00
    Track gain             : -9.52 dB
    Peak                   : 0.992584
    CRC32 hash (test run)  : 78B428C8
    CRC32 hash             : 78B428C8
    CRC32 hash (skip zero) : 63AC063D
    AccurateRip signature  : 52AB7442
        ->Track not present in AccurateRip database.
    Statistics
        Read error                           : 0
        Skipped (treated as error)           : 0
        Edge jitter error (maybe fixed)      : 0
        Atom jitter error (maybe fixed)      : 0
        Drift error (maybe fixed)            : 0
        Dropped bytes error (maybe fixed)    : 0
        Duplicated bytes error (maybe fixed) : 0
        Inconsistency in error sectors       : 0
Track 13
    Filename : /Dead Hand Projekt - Dead Hand Projekt (2010) [FLAC]/13 - Cyanide.flac
    Pre-gap length : 00:02:00
    Track gain             : -9.44 dB
    Peak                   : 0.999207
    CRC32 hash (test run)  : 575D061A
    CRC32 hash             : 575D061A
    CRC32 hash (skip zero) : 9B8FD85B
    AccurateRip signature  : D4F8E040
        ->Track not present in AccurateRip database.
    Statistics
        Read error                           : 0
        Skipped (treated as error)           : 0
        Edge jitter error (maybe fixed)      : 0
        Atom jitter error (maybe fixed)      : 0
        Drift error (maybe fixed)            : 0
        Dropped bytes error (maybe fixed)    : 0
        Duplicated bytes error (maybe fixed) : 0
        Inconsistency in error sectors       : 0
Track 14
    Filename : /Dead Hand Projekt - Dead Hand Projekt (2010) [FLAC]/14 - Desultory.flac
    Pre-gap length : 00:02:00
    Track gain             : -10.15 dB
    Peak                   : 1.000000
    CRC32 hash (test run)  : BA0A07FA
    CRC32 hash             : BA0A07FA
    CRC32 hash (skip zero) : F7CDF4D8
    AccurateRip signature  : 00A5915F
        ->Track not present in AccurateRip database.
    Statistics
        Read error                           : 0
        Skipped (treated as error)           : 0
        Edge jitter error (maybe fixed)      : 0
        Atom jitter error (maybe fixed)      : 0
        Drift error (maybe fixed)            : 0
        Dropped bytes error (maybe fixed)    : 0
        Duplicated bytes error (maybe fixed) : 0
        Inconsistency in error sectors       : 0
Track 15
    Filename : /Dead Hand Projekt - Dead Hand Projekt (2010) [FLAC]/15 - (empty track).flac
    Pre-gap length : 00:02:00
    Track gain             : 64.81 dB
    Peak                   : 0.000000
    CRC32 hash (test run)  : D42C677C
    CRC32 hash             : D42C677C
    CRC32 hash (skip zero) : 00000000
    AccurateRip signature  : 00000000
        ->Track not present in AccurateRip database.
    Statistics
        Read error                           : 0
        Skipped (treated as error)           : 0
        Edge jitter error (maybe fixed)      : 0
        Atom jitter error (maybe fixed)      : 0
        Drift error (maybe fixed)            : 0
        Dropped bytes error (maybe fixed)    : 0
        Duplicated bytes error (maybe fixed) : 0
        Inconsistency in error sectors       : 0
Track 16
    Filename : /Dead Hand Projekt - Dead Hand Projekt (2010) [FLAC]/16 - (empty track).flac
    Pre-gap length : 00:02:00
    Track gain             : 64.81 dB
    Peak                   : 0.000000
    CRC32 hash (test run)  : D42C677C
    CRC32 hash             : D42C677C
    CRC32 hash (skip zero) : 00000000
    AccurateRip signature  : 00000000
        ->Track not present in AccurateRip database.
    Statistics
        Read error                           : 0
        Skipped (treated as error)           : 0
        Edge jitter error (maybe fixed)      : 0
        Atom jitter error (maybe fixed)      : 0
        Drift error (maybe fixed)            : 0
        Dropped bytes error (maybe fixed)    : 0
        Duplicated bytes error (maybe fixed) : 0
        Inconsistency in error sectors       : 0
Track 17
    Filename : /Dead Hand Projekt - Dead Hand Projekt (2010) [FLAC]/17 - (empty track).flac
    Pre-gap length : 00:02:00
    Track gain             : 64.81 dB
    Peak                   : 0.000000
    CRC32 hash (test run)  : D42C677C
    CRC32 hash             : D42C677C
    CRC32 hash (skip zero) : 00000000
    AccurateRip signature  : 00000000
        ->Track not present in AccurateRip database.
    Statistics
        Read error                           : 0
        Skipped (treated as error)           : 0
        Edge jitter error (maybe fixed)      : 0
        Atom jitter error (maybe fixed)      : 0
        Drift error (maybe fixed)            : 0
        Dropped bytes error (maybe fixed)    : 0
        Duplicated bytes error (maybe fixed) : 0
        Inconsistency in error sectors       : 0
Track 18
    Filename : /Dead Hand Projekt - Dead Hand Projekt (2010) [FLAC]/18 - (empty track).flac
    Pre-gap length : 00:02:00
    Track gain             : 64.81 dB
    Peak                   : 0.000000
    CRC32 hash (test run)  : D42C677C
    CRC32 hash             : D42C677C
    CRC32 hash (skip zero) : 00000000
    AccurateRip signature  : 00000000
        ->Track not present in AccurateRip database.
    Statistics
        Read error                           : 0
        Skipped (treated as error)           : 0
        Edge jitter error (maybe fixed)      : 0
        Atom jitter error (maybe fixed)      : 0
        Drift error (maybe fixed)            : 0
        Dropped bytes error (maybe fixed)    : 0
        Duplicated bytes error (maybe fixed) : 0
        Inconsistency in error sectors       : 0
Track 19
    Filename : /Dead Hand Projekt - Dead Hand Projekt (2010) [FLAC]/19 - (empty track).flac
    Pre-gap length : 00:02:00
    Track gain             : 64.81 dB
    Peak                   : 0.000000
    CRC32 hash (test run)  : D42C677C
    CRC32 hash             : D42C677C
    CRC32 hash (skip zero) : 00000000
    AccurateRip signature  : 00000000
        ->Track not present in AccurateRip database.
    Statistics
        Read error                           : 0
        Skipped (treated as error)           : 0
        Edge jitter error (maybe fixed)      : 0
        Atom jitter error (maybe fixed)      : 0
        Drift error (maybe fixed)            : 0
        Dropped bytes error (maybe fixed)    : 0
        Duplicated bytes error (maybe fixed) : 0
        Inconsistency in error sectors       : 0
Track 20
    Filename : /Dead Hand Projekt - Dead Hand Projekt (2010) [FLAC]/20 - Rooster Boy.flac
    Pre-gap length : 00:02:00
    Track gain             : -10.34 dB
    Peak                   : 0.988617
    CRC32 hash (test run)  : FB0ABF97
    CRC32 hash             : FB0ABF97
    CRC32 hash (skip zero) : 775955A4
    AccurateRip signature  : 1C93B085
        ->Track not present in AccurateRip database.
    Statistics
        Read error                           : 0
        Skipped (treated as error)           : 0
        Edge jitter error (maybe fixed)      : 0
        Atom jitter error (maybe fixed)      : 0
        Drift error (maybe fixed)            : 0
        Dropped bytes error (maybe fixed)    : 0
        Duplicated bytes error (maybe fixed) : 0
        Inconsistency in error sectors       : 0
No errors occurred
End of status report
Код:
TITLE "Dead Hand Projekt"
PERFORMER "Dead Hand Projekt"
REM GENRE "Industrial"
REM DATE "2010"
REM DISCID 3C0F4B14
FILE "01 - The 28 Strengths Of Fear.wav" WAVE
  TRACK 01 AUDIO
    TITLE "The 28 Strengths Of Fear"
    INDEX 01 00:00:00
  TRACK 02 AUDIO
    TITLE "Concrete"
    INDEX 00 04:38:03
FILE "02 - Concrete.wav" WAVE
    INDEX 01 00:00:00
  TRACK 03 AUDIO
    TITLE "Lost"
    INDEX 00 04:34:59
FILE "03 - Lost.wav" WAVE
    INDEX 01 00:00:00
  TRACK 04 AUDIO
    TITLE "Smell Of Fear"
    INDEX 00 04:14:69
FILE "04 - Smell Of Fear.wav" WAVE
    INDEX 01 00:00:00
  TRACK 05 AUDIO
    TITLE "Dejected"
    INDEX 00 04:16:00
FILE "05 - Dejected.wav" WAVE
    INDEX 01 00:00:00
  TRACK 06 AUDIO
    TITLE "Hate Me"
    INDEX 00 05:40:28
FILE "06 - Hate Me.wav" WAVE
    INDEX 01 00:00:00
  TRACK 07 AUDIO
    TITLE "Horror"
    INDEX 00 04:32:43
FILE "07 - Horror.wav" WAVE
    INDEX 01 00:00:00
  TRACK 08 AUDIO
    TITLE "Nature"
    INDEX 00 04:24:08
FILE "08 - Nature.wav" WAVE
    INDEX 01 00:00:00
  TRACK 09 AUDIO
    TITLE "Taste"
    INDEX 00 04:11:17
FILE "09 - Taste.wav" WAVE
    INDEX 01 00:00:00
  TRACK 10 AUDIO
    TITLE "Not For Me"
    INDEX 00 04:17:01
FILE "10 - Not For Me.wav" WAVE
    INDEX 01 00:00:00
  TRACK 11 AUDIO
    TITLE "Club Cancer"
    INDEX 00 04:54:51
FILE "11 - Club Cancer.wav" WAVE
    INDEX 01 00:00:00
  TRACK 12 AUDIO
    TITLE "Are You Happy"
    INDEX 00 04:29:06
FILE "12 - Are You Happy.wav" WAVE
    INDEX 01 00:00:00
  TRACK 13 AUDIO
    TITLE "Cyanide"
    INDEX 00 04:09:24
FILE "13 - Cyanide.wav" WAVE
    INDEX 01 00:00:00
  TRACK 14 AUDIO
    TITLE "Desultory"
    INDEX 00 03:44:44
FILE "14 - Desultory.wav" WAVE
    INDEX 01 00:00:00
  TRACK 15 AUDIO
    TITLE "(empty track)"
    INDEX 00 03:50:10
FILE "15 - (empty track).wav" WAVE
    INDEX 01 00:00:00
  TRACK 16 AUDIO
    TITLE "(empty track)"
    INDEX 00 00:05:00
FILE "16 - (empty track).wav" WAVE
    INDEX 01 00:00:00
  TRACK 17 AUDIO
    TITLE "(empty track)"
    INDEX 00 00:05:00
FILE "17 - (empty track).wav" WAVE
    INDEX 01 00:00:00
  TRACK 18 AUDIO
    TITLE "(empty track)"
    INDEX 00 00:05:00
FILE "18 - (empty track).wav" WAVE
    INDEX 01 00:00:00
  TRACK 19 AUDIO
    TITLE "(empty track)"
    INDEX 00 00:05:00
FILE "19 - (empty track).wav" WAVE
    INDEX 01 00:00:00
  TRACK 20 AUDIO
    TITLE "Rooster Boy"
    INDEX 00 00:05:00
FILE "20 - Rooster Boy.wav" WAVE
    INDEX 01 00:00:00
Правила, инструкции, FAQ!!!
Торрент  Добавлен [26 июн 2020, 16:55] Скачать торрент Магнет ссылка
Скачать торрент
[ Размер 20.65 КБ / Просмотров 5 ]

Статус
Проверен 
 
Размер  489.01 МБ
Приватный: Нет (DHT включён)
.torrent скачан  0
 


     Отправить личное сообщение
   
Страница 1 из 1
Показать сообщения за:  Поле сортировки  
Начать новую тему Ответить на тему


Сейчас этот форум просматривают: нет зарегистрированных пользователей и гости: 0


Вы не можете начинать темы
Вы не можете отвечать на сообщения
Вы не можете редактировать свои сообщения
Вы не можете удалять свои сообщения
Вы не можете добавлять вложения

Перейти:  
cron