Начать новую тему Ответить на тему
Статистика раздачи
Размер: 385.09 МБ | Добавлен: 26 июн 2020, 20:14 | Скачали: 0
Сидеров: 0  [0 байт/сек]    Личеров: 0  [0 байт/сек]
Пред. тема | След. тема 

Автор
Сообщение

СообщениеДобавлено: 26 июн 2020, 20:14 

Ответить с цитатой 

Wumpscut - Bunkertor 7
Страна: Germany
Жанр: EBM/industrial/darkwave
Год выпуска: 1995
Формат: APE (image + .cue)
Битрейт аудио: lossless
Продолжительность: 51:37
Трэклист:
1. Open Gate
2. Torn Skin
3. Capital Punishment
4. Die In Winter (Original version)
5. Bunkertor 7 [German Texture]
6. Thorns
7. Mortal Highway
8. Bunkertor 7 [Reprised]
9. Dying Culture
10. Corroded Breed
11. Tell Me Why
12. Close Gate
Доп. информация: https://rutracker.org/forum/viewtopic.php?t=173989
Exact Audio Copy V0.99 prebeta 1 from 25. May 2007
Отчёт EAC об извлечении, выполненном 28. августа 2007, 23:21
:Wumpscut: / Bunkertor 7
Дисковод: HL-DT-STDVDRAM GSA-4160B Adapter: 3 ID: 1
Режим чтения : Достоверность
Использование точного потока : Да
Отключение кэша аудио : Да
Использование указателей C2 : Нет
Коррекция смещения при чтении : 667
Способность читать области Lead-in и Lead-out : Нет
Заполнение пропущенных сэмплов тишиной : Да
Удаление блоков с тишиной в начале и конце : Нет
Интерфейс : Встроенный Win32-интерфейс для Win NT/2000
Выходной формат : Внутренние WAV-операции
Формат сэмплов : 44.100 Гц; 16 бит; стерео
TOC извлечённого CD
Трек | Старт | Длительность | Начальный сектор | Конечный сектор
---------------------------------------------------------------------
1 | 0:00.00 | 1:19.02 | 0 | 5926
2 | 1:19.02 | 5:29.33 | 5927 | 30634
3 | 6:48.35 | 5:48.70 | 30635 | 56804
4 | 12:37.30 | 4:49.12 | 56805 | 78491
5 | 17:26.42 | 4:42.15 | 78492 | 99656
6 | 22:08.57 | 5:49.43 | 99657 | 125874
7 | 27:58.25 | 4:46.37 | 125875 | 147361
8 | 32:44.62 | 4:57.58 | 147362 | 169694
9 | 37:42.45 | 4:17.22 | 169695 | 188991
10 | 41:59.67 | 4:15.73 | 188992 | 208189
11 | 46:15.65 | 4:21.55 | 208190 | 227819
12 | 50:37.45 | 0:59.67 | 227820 | 232311
Характеристики диапазона извлечения и сообщения об ошибках
Выбранный диапазон
Имя файла F:\E\Downlded\Distributive\Torrent_razdacha\Wumpscut - Bunkertor 7\Wumpscut - Bunkertor 7.wav
Пиковый уровень 99.4 %
Качество диапазона 99.9 %
CRC копии 6B592F7C
Копирование... OK
Ошибок не произошло
Конец отчёта
Правила, инструкции, FAQ!!!
Торрент  Добавлен [26 июн 2020, 20:14] Скачать торрент Магнет ссылка
Скачать торрент
[ Размер 15.68 КБ / Просмотров 9 ]

Статус
Проверен 
 
Размер  385.09 МБ
Приватный: Нет (DHT включён)
.torrent скачан  0
 


     Отправить личное сообщение
   
Страница 1 из 1
Показать сообщения за:  Поле сортировки  
Начать новую тему Ответить на тему


Сейчас этот форум просматривают: нет зарегистрированных пользователей и гости: 0


Вы не можете начинать темы
Вы не можете отвечать на сообщения
Вы не можете редактировать свои сообщения
Вы не можете удалять свои сообщения
Вы не можете добавлять вложения

Перейти:  
cron