Начать новую тему Ответить на тему
Статистика раздачи
Размер: 323.34 МБ | Добавлен: 26 июн 2020, 17:16 | Скачали: 0
Сидеров: 0  [0 байт/сек]    Личеров: 0  [0 байт/сек]
Пред. тема | След. тема 

Автор
Сообщение

СообщениеДобавлено: 26 июн 2020, 17:16 

Ответить с цитатой 

Ad Inferna - There Is No Cure [Nilaihah Records] (2011)
Жанр: Electronic
Стиль: EBM / Industrial / Darkwave
Страна-производитель диска: US
Год издания диска: 26 Apr 2011
Издатель (лейбл): Nilaihah Records
Номер по каталогу: NR049
Аудиокодек: FLAC (*.flac)
Тип рипа: image+.cue
Битрейт аудио: lossless (951 kbps)
Продолжительность: 40:44
Источник (релизер): nilaihah.com (lightness11)
Наличие сканов в содержимом раздачи: да
Треклист:
1. The Presence (1:07)
2. Angelik (4:59)
3. Seventh Heaven (4:15)
4. Under My Skin (4:46)
5. French Kiss Of Death (Feat. Kari Berg) (4:13)
6. Stigma (Feat. Renee Cooper) (5:38)
7. Sex Spell (5:27)
8. Resurrection (5:01)
9. The One (5:17)
Код:
Exact Audio Copy V0.99 prebeta 5 from 4. May 2009
EAC extraction logfile from 23. September 2011, 18:39
Ad Inferna / There Is No Cure
Used drive  : HL-DT-STDVDRAM GSA-T50N   Adapter: 1  ID: 0
Read mode               : Secure
Utilize accurate stream : Yes
Defeat audio cache      : Yes
Make use of C2 pointers : No
Read offset correction                      : 667
Overread into Lead-In and Lead-Out          : No
Fill up missing offset samples with silence : Yes
Delete leading and trailing silent blocks   : No
Null samples used in CRC calculations       : Yes
Used interface                              : Native Win32 interface for Win NT & 2000
Used output format              : User Defined Encoder
Selected bitrate                : 768 kBit/s
Quality                         : High
Add ID3 tag                     : No
Command line compressor         : C:\Program Files (x86)\Exact Audio Copy\Flac\flac.exe
Additional command line options : -8 -V %s
TOC of the extracted CD
     Track |   Start  |  Length  | Start sector | End sector
    ---------------------------------------------------------
        1  |  0:00.00 |  1:07.36 |         0    |     5060
        2  |  1:07.36 |  4:59.08 |      5061    |    27493
        3  |  6:06.44 |  4:15.04 |     27494    |    46622
        4  | 10:21.48 |  4:46.08 |     46623    |    68080
        5  | 15:07.56 |  4:13.03 |     68081    |    87058
        6  | 19:20.59 |  5:38.03 |     87059    |   112411
        7  | 24:58.62 |  5:27.33 |    112412    |   136969
        8  | 30:26.20 |  5:01.13 |    136970    |   159557
        9  | 35:27.33 |  5:17.12 |    159558    |   183344
Range status and errors
Selected range
     Filename F:\Music\[Lossless]\Ad Inferna\Ad Inferna - There Is No Cure (2011)\Ad Inferna - There Is No Cure.wav
     Peak level 98.8 %
     Range quality 100.0 %
     Test CRC 5F977AD7
     Copy CRC 5F977AD7
     Copy OK
No errors occurred
AccurateRip summary
Track  1  accurately ripped (confidence 1)  [ED9C8577]
Track  2  accurately ripped (confidence 1)  [05182613]
Track  3  accurately ripped (confidence 1)  [FBB57DDB]
Track  4  accurately ripped (confidence 1)  [8A96C101]
Track  5  accurately ripped (confidence 1)  [F2C823EE]
Track  6  accurately ripped (confidence 1)  [1A742FF8]
Track  7  accurately ripped (confidence 1)  [296E04D6]
Track  8  accurately ripped (confidence 1)  [6229E964]
Track  9  accurately ripped (confidence 1)  [18978E29]
All tracks accurately ripped
End of status report
Код:
AUDIOCHECKER v2.0 beta (build 457) - by Dester - opdester@freemail.hu
~~~~~~~~~~~~~~~~~~~~~~~~~~~~~~~~~~
-=== DO NOT EDIT THIS FILE! ===-
Path: ...\Ad Inferna - There Is No Cure (2011)
1 -=- Ad Inferna - There Is No Cure.flac -=- CDDA (100%)
97395684
Правила, инструкции, FAQ!!!
Торрент  Добавлен [26 июн 2020, 17:16] Скачать торрент Магнет ссылка
Скачать торрент
[ Размер 13.67 КБ / Просмотров 10 ]

Статус
Проверен 
 
Размер  323.34 МБ
Приватный: Нет (DHT включён)
.torrent скачан  0
 


     Отправить личное сообщение
   
Страница 1 из 1
Показать сообщения за:  Поле сортировки  
Начать новую тему Ответить на тему


Сейчас этот форум просматривают: нет зарегистрированных пользователей и гости: 0


Вы не можете начинать темы
Вы не можете отвечать на сообщения
Вы не можете редактировать свои сообщения
Вы не можете удалять свои сообщения
Вы не можете добавлять вложения

Перейти:  
cron