Начать новую тему Ответить на тему
Статистика раздачи
Размер: 438.81 МБ | Добавлен: 26 июн 2020, 16:52 | Скачали: 0
Сидеров: 0  [0 байт/сек]    Личеров: 0  [0 байт/сек]
Пред. тема | След. тема 

Автор
Сообщение

СообщениеДобавлено: 26 июн 2020, 16:52 

Ответить с цитатой 

cB (Cyclon Б, Cyclon B) / Evil
Жанр: EBM, Industrial
Страна-производитель диска: Hungary
Год издания диска: 2009
Издатель (лейбл): Advoxya
Номер по каталогу: ad-hun-28-cd
Страна: Estonia
Аудио кодек: FLAC (*.flac)
Тип рипа: image+.cue
Битрейт аудио: lossless
Продолжительность: 0:57:50.37
Источник (релизер): CD из личной коллекции.
Наличие сканов в содержимом раздачи: нет
Треклист:
01. Sun 4:53
02. Gates Of Pain 5:47
03. Place Of Nothingless (Album Version) 4:42
04. Hunters 4:12
05. Human Progress 4:57
06. Negative 3:50
07. Destroy 4:16
08. Sect 4:38
09. Restore Point 4:17
10. Tolerance For The Second Sort 4:14
11. Monument Of Pain (Instrumental) 5:34
12. Prayer 6:23
Код:
Exact Audio Copy V0.99 prebeta 5 from 4. May 2009
Отчёт EAC об извлечении, выполненном 10. октября 2010, 14:38
cB / Evil
Дисковод: TSSTcorpCDDVDW TS-L632H   Adapter: 0  ID: 0
Режим чтения                 : Достоверность
Использование точного потока : Да
Отключение кэша аудио        : Да
Использование указателей C2  : Нет
Коррекция смещения при чтении                     : 6
Способность читать области Lead-in и Lead-out     : Нет
Заполнение пропущенных сэмплов тишиной            : Да
Удаление блоков с тишиной в начале и конце        : Нет
При вычислениях CRC использовались нулевые сэмплы : Да
Интерфейс                                         : Встроенный Win32-интерфейс для Win NT/2000
Выходной формат          : Пользовательский кодировщик
Выбранный битрейт        : 1024 kBit/s
Качество                 : Высокий
Добавление ID3-тэга      : Нет
Утилита сжатия           : C:\Program Files\Exact Audio Copy\FLAC\FLAC.EXE
Дополнительные параметры : -6 -V -T "ARTIST=%a" -T "TITLE=%t" -T "ALBUM=%g" -T "DATE=%y" -T "TRACKNUMBER=%n" -T "GENRE=%m" -T "COMMENT=%e" %s -o %d
TOC извлечённого CD
     Трек |   Старт  | Длительность | Начальный сектор | Конечный сектор
    ---------------------------------------------------------------------
       1  |  0:00.00 |    4:53.33   |           0      |      22007
       2  |  4:53.33 |    5:47.66   |       22008      |      48098
       3  | 10:41.24 |    4:42.71   |       48099      |      69319
       4  | 15:24.20 |    4:12.56   |       69320      |      88275
       5  | 19:37.01 |    4:57.33   |       88276      |     110583
       6  | 24:34.34 |    3:50.47   |      110584      |     127880
       7  | 28:25.06 |    4:16.25   |      127881      |     147105
       8  | 32:41.31 |    4:38.70   |      147106      |     168025
       9  | 37:20.26 |    4:17.52   |      168026      |     187352
      10  | 41:38.03 |    4:14.74   |      187353      |     206476
      11  | 45:53.02 |    5:34.35   |      206477      |     231561
      12  | 51:27.37 |    6:23.00   |      231562      |     260286
Характеристики диапазона извлечения и сообщения об ошибках
Выбранный диапазон
     Имя файла C:\Users\Алексей\Desktop\iPOD\cB - Evil.wav
     Пиковый уровень 100.0 %
     Качество диапазона 100.0 %
     CRC теста B250BECE
     CRC копии B250BECE
     Копирование... OK
Ошибок не произошло
AccurateRip: сводка
Трек  1  нет в базе данных
Трек  2  нет в базе данных
Трек  3  нет в базе данных
Трек  4  нет в базе данных
Трек  5  нет в базе данных
Трек  6  нет в базе данных
Трек  7  нет в базе данных
Трек  8  нет в базе данных
Трек  9  нет в базе данных
Трек 10  нет в базе данных
Трек 11  нет в базе данных
Трек 12  нет в базе данных
Ни одного трека нет в базе AccurateRip
Конец отчёта
Код:
REM GENRE "Dark Electro"
REM DATE 2009
REM DISCID AE0D8E0C
REM COMMENT "ExactAudioCopy v0.99pb5"
PERFORMER "cB"
TITLE "Evil"
FILE "cB - Evil.flac" WAVE
  TRACK 01 AUDIO
    TITLE "1-Sun"
    PERFORMER "cB"
    INDEX 01 00:00:00
  TRACK 02 AUDIO
    TITLE "2-Gates Of Pain"
    PERFORMER "cB"
    INDEX 01 04:53:33
  TRACK 03 AUDIO
    TITLE "3-Place Of Nothingless"
    PERFORMER "cB"
    INDEX 01 10:41:24
  TRACK 04 AUDIO
    TITLE "4-Hunters"
    PERFORMER "cB"
    INDEX 01 15:24:20
  TRACK 05 AUDIO
    TITLE "5-Human Progress"
    PERFORMER "cB"
    INDEX 01 19:37:01
  TRACK 06 AUDIO
    TITLE "6-Negative"
    PERFORMER "cB"
    INDEX 01 24:34:34
  TRACK 07 AUDIO
    TITLE "7-Destroy"
    PERFORMER "cB"
    INDEX 01 28:25:06
  TRACK 08 AUDIO
    TITLE "8-Sect"
    PERFORMER "cB"
    INDEX 01 32:41:31
  TRACK 09 AUDIO
    TITLE "9-Restore Point"
    PERFORMER "cB"
    INDEX 01 37:20:26
  TRACK 10 AUDIO
    TITLE "10-Tolerance For The Second Sort"
    PERFORMER "cB"
    INDEX 01 41:38:03
  TRACK 11 AUDIO
    TITLE "11-Monument Of Pain"
    PERFORMER "cB"
    INDEX 01 45:53:02
  TRACK 12 AUDIO
    TITLE "12-Prayer"
    PERFORMER "cB"
    INDEX 01 51:27:37
Правила, инструкции, FAQ!!!
Торрент  Добавлен [26 июн 2020, 16:52] Скачать торрент Магнет ссылка
Скачать торрент
[ Размер 17.72 КБ / Просмотров 5 ]

Статус
Проверен 
 
Размер  438.81 МБ
Приватный: Нет (DHT включён)
.torrent скачан  0
 


     Отправить личное сообщение
   
Страница 1 из 1
Показать сообщения за:  Поле сортировки  
Начать новую тему Ответить на тему


Сейчас этот форум просматривают: нет зарегистрированных пользователей и гости: 0


Вы не можете начинать темы
Вы не можете отвечать на сообщения
Вы не можете редактировать свои сообщения
Вы не можете удалять свои сообщения
Вы не можете добавлять вложения

Перейти:  
cron