Начать новую тему Ответить на тему
Статистика раздачи
Размер: 143.14 МБ | Добавлен: 26 июн 2020, 16:58 | Скачали: 0
Сидеров: 0  [0 байт/сек]    Личеров: 0  [0 байт/сек]
Пред. тема | След. тема 

Автор
Сообщение

СообщениеДобавлено: 26 июн 2020, 16:58 

Ответить с цитатой 

E-Craft - Reaktanz / СDM
Жанр: EBM,Industrial
Год выпуска диска: 1998
Производитель диска: Германия
Аудио кодек: APE
Тип рипа: image+.cue
Битрейт аудио: lossless
Продолжительность: 00:22:35
Трэклист:
01.Körper
02.Das Ist Liebe?
03.Titten (Grand-Nipple-Mix)
04.Was Ihr Wollt!
05.Withered Side
Код:
Exact Audio Copy V0.99 prebeta 5 from 4. May 2009
Отчёт EAC об извлечении, выполненном 24. июля 2009, 23:56
E-Craft / Reaktanz
Дисковод: Optiarc DVD RW AD-7201S   Adapter: 1  ID: 1
Режим чтения                 : Достоверность
Использование точного потока : Да
Отключение кэша аудио        : Да
Использование указателей C2  : Нет
Коррекция смещения при чтении                     : 48
Способность читать области Lead-in и Lead-out     : Нет
Заполнение пропущенных сэмплов тишиной            : Да
Удаление блоков с тишиной в начале и конце        : Нет
При вычислениях CRC использовались нулевые сэмплы : Да
Интерфейс                                         : Установленный внешний ASPI-интерфейс
Выходной формат : Внутренние WAV-операции
Формат сэмплов  : 44.100 Гц; 16 бит; стерео
TOC извлечённого CD
     Трек |   Старт  | Длительность | Начальный сектор | Конечный сектор
    ---------------------------------------------------------------------
       1  |  0:00.00 |    4:08.61   |           0      |      18660
       2  |  4:08.61 |    5:00.11   |       18661      |      41171
       3  |  9:08.72 |    4:13.45   |       41172      |      60191
       4  | 13:22.42 |    4:12.04   |       60192      |      79095
       5  | 17:34.46 |    5:00.52   |       79096      |     101647
Характеристики диапазона извлечения и сообщения об ошибках
Выбранный диапазон
     Имя файла D:\Documents and Settings\Rodexx\Рабочий стол\E-Craft - Reaktanz\E-Craft - Reaktanz.wav
     Пиковый уровень 99.9 %
     Качество диапазона 100.0 %
     CRC копии 051A5D8B
     Копирование... OK
Ошибок не произошло
Конец отчёта
Label: Maschinenwelt Records
Catalog#: MW 013
Format: CD, Maxi-Single
Country: Germany
Released: 1998
Genre: Electronic
Style: Industrial
Правила, инструкции, FAQ!!!
Торрент  Добавлен [26 июн 2020, 16:58] Скачать торрент Магнет ссылка
Скачать торрент
[ Размер 11.83 КБ / Просмотров 4 ]

Статус
Проверен 
 
Размер  143.14 МБ
Приватный: Нет (DHT включён)
.torrent скачан  0
 


     Отправить личное сообщение
   
Страница 1 из 1
Показать сообщения за:  Поле сортировки  
Начать новую тему Ответить на тему


Сейчас этот форум просматривают: нет зарегистрированных пользователей и гости: 0


Вы не можете начинать темы
Вы не можете отвечать на сообщения
Вы не можете редактировать свои сообщения
Вы не можете удалять свои сообщения
Вы не можете добавлять вложения

Перейти:  
cron