Начать новую тему Ответить на тему
Статистика раздачи
Размер: 381.11 МБ | Добавлен: 26 июн 2020, 16:49 | Скачали: 0
Сидеров: 0  [0 байт/сек]    Личеров: 0  [0 байт/сек]
Пред. тема | След. тема 

Автор
Сообщение

СообщениеДобавлено: 26 июн 2020, 16:49 

Ответить с цитатой 

Controlled Collapse - Injection
Жанр: EBM, Industrial
Страна-производитель диска: Germany
Год издания диска: 2007
Издатель (лейбл): Dependent Records
Номер по каталогу: mind 119
Страна: Germany
Аудио кодек: FLAC (*.flac)
Тип рипа: image+.cue
Битрейт аудио: lossless
Продолжительность: 50:36
Источник (релизер): megaupload.com
Наличие сканов в содержимом раздачи: нет
Треклист:
01. Intro (3:03)
02. Liar (4:20)
03. Choice (4:14)
04. Selfless (4:11)
05. Dreams (4:45)
06. Insane Asylum (4:08)
07. Trust (Takes Time) (4:00)
08. Inject (Syringe Edit) (4:14)
09. Where Were You (3:10)
10. Solitude (Featuring Wendy Yanko) (3:40)
11. Fulfillment (Feat. Darrin Huss) (5:14)
12. Memory Of The Past (5:31)
Внимание! Все выложенные здесь материалы предоставлены исключительно в целях ознакомления! После ознакомления с материалами Вы обязаны их удалить! Если Вы хотите пользоваться данным материалом в дальнейшем – Вы должны приобрести лицензионный диск.
Лучшая ваша благодарность за раздачу - отзывы об альбоме!
Наиогромнейшее спасибо за рип нашему коллеге, eXe7er, который со мною им поделился!
Код:
Exact Audio Copy V0.99 prebeta 4 from 23. January 2008
Sprawozdanie ze zgrywania programem EAC z 21. Lutego 2009, 10:32
Controlled Collapse / Injection
Uїyty napкd: PBDS    DVD+-RW DS-8W1P   Adapter: 1  ID: 0
Tryb odczytu:               : Bezpieczny
Dokіadny strumieс           : Tak
Neutralizacja bufora napкdu : Tak
Zwracanie bікdуw C2         : Nie
Wspуlna dla odczytu/zapisu korekta poіoїenia                 : 594
Nadczytywanie w obszarach LeadIn i LeadOut                   : Nie
Dopeіnianie cisz№ brakuj№cych prуbek                         : Tak
Usuwanie pocz№tkowych i koсcowych blokуw ciszy               : Nie
Do przeliczenia sumy kontrolnej CRC uїywane s№ prуbki zerowe : Nie
Interfejs                                                    : Wewnкtrzny interfejs Win32 dla Windows NT i 2000
Uїyty format wyjњciowy        : Koder uїytkownika
Wybrana przepіywnoњж bitуw    : 768 kBit/s
Jakoњж                        : Wysoka
Dodawanie znacznikуw ID3      : Nie
Kompresor linii poleceс       : C:\Program Files\Exact Audio Copy\FLAC\FLAC.EXE
Dodatkowe opcje linii poleceс : -6 -V -T "ARTIST=%a" -T "TITLE=%t" -T "ALBUM=%g" -T "DATE=%y" -T "TRACKNUMBER=%n" -T "GENRE=%m" -T "COMMENT=%e" %s -o %d
TOC zgranej pіyty
     Utwуr | Pocz№tek |  Dіugoњж | Sektor pocz№tkowy | Sektor koсcowy
    ------------------------------------------------------------------
        1  |  0:00.00 |  3:03.25 |           0       |      13749
        2  |  3:03.25 |  4:20.62 |       13750       |      33311
        3  |  7:24.12 |  4:14.46 |       33312       |      52407
        4  | 11:38.58 |  4:11.29 |       52408       |      71261
        5  | 15:50.12 |  4:45.71 |       71262       |      92707
        6  | 20:36.08 |  4:08.40 |       92708       |     111347
        7  | 24:44.48 |  4:00.65 |      111348       |     129412
        8  | 28:45.38 |  4:14.06 |      129413       |     148468
        9  | 32:59.44 |  3:10.00 |      148469       |     162718
       10  | 36:09.44 |  3:40.37 |      162719       |     179255
       11  | 39:50.06 |  5:14.27 |      179256       |     202832
       12  | 45:04.33 |  5:31.10 |      202833       |     227667
Stan i bікdy zakresu
Wybrany zakres
     Њcieїka pliku C:\Users\MARCIN\Music\TORRENTY UDOSTКPNIONE\Controlled Collapse - Injection (2007) FLAC\Controlled Collapse - Injection.wav
     Poziom wysterowania 100.0 %
     Jakoњж zakresu 100.0 %
     CRC testowana 4F31F7D1
     CRC kopii     4F31F7D1
     Kopia bezbікdna
Nie byіo bікdуw
Koniec raportu
Код:
REM GENRE Electronic, Industrial
REM DATE 2007
REM DISCID A40BDB0C
REM COMMENT "ExactAudioCopy v0.99pb4"
PERFORMER "Controlled Collapse"
TITLE "Injection"
FILE "Controlled Collapse - Injection.flac" WAVE
  TRACK 01 AUDIO
    TITLE "Intro"
    PERFORMER "Controlled Collapse"
    INDEX 01 00:00:00
  TRACK 02 AUDIO
    TITLE "Liar"
    PERFORMER "Controlled Collapse"
    INDEX 00 03:02:09
    INDEX 01 03:03:25
  TRACK 03 AUDIO
    TITLE "Choice"
    PERFORMER "Controlled Collapse"
    INDEX 00 07:23:17
    INDEX 01 07:24:12
  TRACK 04 AUDIO
    TITLE "Selfless"
    PERFORMER "Controlled Collapse"
    INDEX 00 11:38:06
    INDEX 01 11:38:58
  TRACK 05 AUDIO
    TITLE "Dreams"
    PERFORMER "Controlled Collapse"
    INDEX 00 15:48:57
    INDEX 01 15:50:12
  TRACK 06 AUDIO
    TITLE "Insane Asylum"
    PERFORMER "Controlled Collapse"
    INDEX 00 20:34:69
    INDEX 01 20:36:08
  TRACK 07 AUDIO
    TITLE "Trust (Takes Time)"
    PERFORMER "Controlled Collapse"
    INDEX 00 24:43:46
    INDEX 01 24:44:48
  TRACK 08 AUDIO
    TITLE "Inject (Syringe Edit)"
    PERFORMER "Controlled Collapse"
    INDEX 00 28:44:44
    INDEX 01 28:45:38
  TRACK 09 AUDIO
    TITLE "Where Were You"
    PERFORMER "Controlled Collapse"
    INDEX 00 32:58:15
    INDEX 01 32:59:44
  TRACK 10 AUDIO
    TITLE "Solitude"
    PERFORMER "Controlled Collapse"
    INDEX 00 36:08:61
    INDEX 01 36:09:44
  TRACK 11 AUDIO
    TITLE "Fulfillment"
    PERFORMER "Controlled Collapse"
    INDEX 00 39:49:28
    INDEX 01 39:50:06
  TRACK 12 AUDIO
    TITLE "Memory Of The Past"
    PERFORMER "Controlled Collapse"
    INDEX 00 45:03:21
    INDEX 01 45:04:33
Код:
AUDIOCHECKER v2.0 beta (build 457) - by Dester - opdester@freemail.hu
~~~~~~~~~~~~~~~~~~~~~~~~~~~~~~~~~~
-=== NIE EDYTUJ TEGO PLIKU! ===-
Њcieїka: ...\Controlled Collapse - Injection (2007) FLAC
1 -=- Controlled Collapse - Injection.flac -=- CDDA (100%)
201387812


Молодой и, безусловно, талантливый польский музыкант Войцех Крол (Wojciech Krol) всегда восхищался крестными отцами жесткого EBM бельгийцами Suicide Commando. Так что совершенно неудивительно, что его дебютный альбом «Injection» (2007) это гремучая смесь жесткого электро (трэки «Liar», «Impact») и чистого EBM («Selfless», «Dreams»), с которой можно отправляться прямиком на клубные танцполы. Если вам нравится брутальное тяжелое звучание Agonoize, Hocico и Velvet Acid Christ, то вам определенно понравится и Controlled Collapse. На радость любителям более мягкого технопопа на одном из трэков («Fulfillment») можно услышать Даррина Хасса (Darrin Huss) из PSYCHE.
Правила, инструкции, FAQ!!!
Торрент  Добавлен [26 июн 2020, 16:49] Скачать торрент Магнет ссылка
Скачать торрент
[ Размер 15.63 КБ / Просмотров 3 ]

Статус
Проверен 
 
Размер  381.11 МБ
Приватный: Нет (DHT включён)
.torrent скачан  0
 


     Отправить личное сообщение
   
Страница 1 из 1
Показать сообщения за:  Поле сортировки  
Начать новую тему Ответить на тему


Сейчас этот форум просматривают: нет зарегистрированных пользователей и гости: 0


Вы не можете начинать темы
Вы не можете отвечать на сообщения
Вы не можете редактировать свои сообщения
Вы не можете удалять свои сообщения
Вы не можете добавлять вложения

Перейти:  
cron