Начать новую тему Ответить на тему
Статистика раздачи
Размер: 441.6 МБ | Добавлен: 26 июн 2020, 17:24 | Скачали: 0
Сидеров: 0  [0 байт/сек]    Личеров: 0  [0 байт/сек]
Пред. тема | След. тема 

Автор
Сообщение

СообщениеДобавлено: 26 июн 2020, 17:24 

Ответить с цитатой 

Collapse Project / Your Own Way
#777
Жанр: EBM, Industrial
Страна-производитель диска: Germany
Год издания: 2007
Издатель (лейбл): Klangdynamik Records
Номер по каталогу: KD 02
Формат: CDr, Album, Limited Edition (111 copies), Small DVD Box
Аудиокодек: FLAC (*.flac)
Тип рипа: image+.cue
Битрейт аудио: lossless
Продолжительность: 1:00:12.71
Источник (релизер): Физический носитель (Собственный рип с оригинала)
Наличие сканов в содержимом раздачи: да
Треклист:
01. Reanimate [3:58]
02. World Of Lies [5:47]
03. Crusher V.1 [3:16]
04. My Own Way [6:10]
05. Aggression Inside [4:29]
06. Back To Hell [4:49]
07. Lost Memories [6:29]
08. Vindication [4:00]
09. Cross Of Dead [4:00]
10. Roak [3:58]
11. Silent Hunter [4:46]
12. Fireblade [4:25]
13. The Day After [4:07]
Код:
Exact Audio Copy V1.0 beta 3 from 29. August 2011
EAC extraction logfile from 15. August 2012, 17:50
Collapse Project / Your Own Way
Used drive  : PLEXTOR BDDVDR PX-B320SA   Adapter: 6  ID: 2
Read mode               : Secure
Utilize accurate stream : Yes
Defeat audio cache      : Yes
Make use of C2 pointers : No
Read offset correction                      : 6
Overread into Lead-In and Lead-Out          : No
Fill up missing offset samples with silence : Yes
Delete leading and trailing silent blocks   : No
Null samples used in CRC calculations       : Yes
Used interface                              : Installed external ASPI interface
Used output format              : User Defined Encoder
Selected bitrate                : 128 kBit/s
Quality                         : High
Add ID3 tag                     : No
Command line compressor         : C:\Program Files (x86)\FLAC\flac.exe
Additional command line options : -V -8 -T "Date=%year%" -T "Genre=%genre%" %source%
TOC of the extracted CD
     Track |   Start  |  Length  | Start sector | End sector
    ---------------------------------------------------------
        1  |  0:00.00 |  3:57.66 |         0    |    17840
        2  |  3:57.66 |  5:46.56 |     17841    |    43846
        3  |  9:44.47 |  3:15.69 |     43847    |    58540
        4  | 13:00.41 |  6:10.01 |     58541    |    86291
        5  | 19:10.42 |  4:28.37 |     86292    |   106428
        6  | 23:39.04 |  4:49.24 |    106429    |   128127
        7  | 28:28.28 |  6:28.64 |    128128    |   157291
        8  | 34:57.17 |  4:00.00 |    157292    |   175291
        9  | 38:57.17 |  3:59.63 |    175292    |   193279
       10  | 42:57.05 |  3:57.65 |    193280    |   211119
       11  | 46:54.70 |  4:46.11 |    211120    |   232580
       12  | 51:41.06 |  4:24.35 |    232581    |   252415
       13  | 56:05.41 |  4:07.30 |    252416    |   270970
Range status and errors
Selected range
     Filename D:\Collapse Project - Your Own Way (2007)\Collapse Project - Your Own Way.wav
     Peak level 100.0 %
     Extraction speed 8.0 X
     Range quality 100.0 %
     Test CRC 3F651D5E
     Copy CRC 3F651D5E
     Copy OK
No errors occurred
AccurateRip summary
Track  1  not present in database
Track  2  not present in database
Track  3  not present in database
Track  4  not present in database
Track  5  not present in database
Track  6  not present in database
Track  7  not present in database
Track  8  not present in database
Track  9  not present in database
Track 10  not present in database
Track 11  not present in database
Track 12  not present in database
Track 13  not present in database
None of the tracks are present in the AccurateRip database
End of status report
==== Log checksum 4B63CF19121A24CE4205F25E39CC0307F9E10A3B72D8CB69D4DC30BBA5715FCF ====
Правила, инструкции, FAQ!!!
Торрент  Добавлен [26 июн 2020, 17:24] Скачать торрент Магнет ссылка
Скачать торрент
[ Размер 18.08 КБ / Просмотров 13 ]

Статус
Проверен 
 
Размер  441.6 МБ
Приватный: Нет (DHT включён)
.torrent скачан  0
 


     Отправить личное сообщение
   
Страница 1 из 1
Показать сообщения за:  Поле сортировки  
Начать новую тему Ответить на тему


Сейчас этот форум просматривают: нет зарегистрированных пользователей и гости: 0


Вы не можете начинать темы
Вы не можете отвечать на сообщения
Вы не можете редактировать свои сообщения
Вы не можете удалять свои сообщения
Вы не можете добавлять вложения

Перейти:  
cron