Начать новую тему Ответить на тему
Статистика раздачи
Размер: 708.66 МБ | Добавлен: 26 июн 2020, 20:30 | Скачали: 0
Сидеров: 0  [0 байт/сек]    Личеров: 0  [0 байт/сек]
Пред. тема | След. тема 

Автор
Сообщение

СообщениеДобавлено: 26 июн 2020, 20:30 

Ответить с цитатой 

Cephalgy - Herzschlag [Album CD + ЕР, Digipak Edition]
Жанр: EBM, Industrial
Год выпуска диска: 2008
Производитель диска: Германия
Аудио кодек: APE
Тип рипа: image+.cue
Битрейт аудио: lossless
Продолжительность: 00:53:56+00:38:17
Трэклист:
CD-1
01.Erloese Mich
02.Schwarze Goettin
03.Hass Mich
04.Traenen Zu Staub
05.Du
06.I'll Survive
07.Electroholic
08.Dunkelseele
09.Muede
10.Schutzengel
11.Koenigin
12.Herzschlag
13.Tiefer
CD-2
01.Unsterblich
02.Brennen
03.Hilfeschrei
04.Lebe
05.Erloese Mich (Accessory RMX)
06.Tiefer (Battle Scream RMX)
07.Hass Mich (Deadtronic RMX)
08.Koenigin (Shizophobia RMX)
Код:
Exact Audio Copy V0.99 prebeta 5 from 4. May 2009
Отчёт EAC об извлечении, выполненном 29. июля 2009, 18:03
Cephalgy / Herzschlag CD1
Дисковод: Optiarc DVD RW AD-7201S   Adapter: 1  ID: 1
Режим чтения                 : Достоверность
Использование точного потока : Да
Отключение кэша аудио        : Да
Использование указателей C2  : Нет
Коррекция смещения при чтении                     : 48
Способность читать области Lead-in и Lead-out     : Нет
Заполнение пропущенных сэмплов тишиной            : Да
Удаление блоков с тишиной в начале и конце        : Нет
При вычислениях CRC использовались нулевые сэмплы : Да
Интерфейс                                         : Установленный внешний ASPI-интерфейс
Выходной формат : Внутренние WAV-операции
Формат сэмплов  : 44.100 Гц; 16 бит; стерео
TOC извлечённого CD
     Трек |   Старт  | Длительность | Начальный сектор | Конечный сектор
    ---------------------------------------------------------------------
       1  |  0:00.00 |    4:32.50   |           0      |      20449
       2  |  4:32.50 |    4:04.57   |       20450      |      38806
       3  |  8:37.32 |    3:32.05   |       38807      |      54711
       4  | 12:09.37 |    3:53.04   |       54712      |      72190
       5  | 16:02.41 |    4:06.12   |       72191      |      90652
       6  | 20:08.53 |    4:04.48   |       90653      |     109000
       7  | 24:13.26 |    4:29.40   |      109001      |     129215
       8  | 28:42.66 |    4:04.36   |      129216      |     147551
       9  | 32:47.27 |    4:07.70   |      147552      |     166146
      10  | 36:55.22 |    4:21.54   |      166147      |     185775
      11  | 41:17.01 |    4:14.13   |      185776      |     204838
      12  | 45:31.14 |    4:26.20   |      204839      |     224808
      13  | 49:57.34 |    3:59.28   |      224809      |     242761
Характеристики диапазона извлечения и сообщения об ошибках
Выбранный диапазон
     Имя файла D:\Documents and Settings\Rodexx\Рабочий стол\Cephalgy - Herzschlag (2CD)\Cephalgy - Herzschlag CD1.wav
     Пиковый уровень 99.4 %
     Качество диапазона 100.0 %
     CRC теста 412BF473
     CRC копии 412BF473
     Копирование... OK
Ошибок не произошло
Конец отчёта
 
Код:
 Exact Audio Copy V0.99 prebeta 5 from 4. May 2009
Отчёт EAC об извлечении, выполненном 29. июля 2009, 18:17
Cephalgy  / Herzschlag (CD2)
Дисковод: Optiarc DVD RW AD-7201S   Adapter: 1  ID: 1
Режим чтения                 : Достоверность
Использование точного потока : Да
Отключение кэша аудио        : Да
Использование указателей C2  : Нет
Коррекция смещения при чтении                     : 48
Способность читать области Lead-in и Lead-out     : Нет
Заполнение пропущенных сэмплов тишиной            : Да
Удаление блоков с тишиной в начале и конце        : Нет
При вычислениях CRC использовались нулевые сэмплы : Да
Интерфейс                                         : Установленный внешний ASPI-интерфейс
Выходной формат : Внутренние WAV-операции
Формат сэмплов  : 44.100 Гц; 16 бит; стерео
TOC извлечённого CD
     Трек |   Старт  | Длительность | Начальный сектор | Конечный сектор
    ---------------------------------------------------------------------
       1  |  0:00.00 |    4:44.11   |           0      |      21310
       2  |  4:44.11 |    4:08.15   |       21311      |      39925
       3  |  8:52.26 |    3:53.21   |       39926      |      57421
       4  | 12:45.47 |    4:39.43   |       57422      |      78389
       5  | 17:25.15 |    4:33.08   |       78390      |      98872
       6  | 21:58.23 |    5:04.47   |       98873      |     121719
       7  | 27:02.70 |    3:57.66   |      121720      |     139560
       8  | 31:00.61 |    7:16.30   |      139561      |     172290
Характеристики диапазона извлечения и сообщения об ошибках
Выбранный диапазон
     Имя файла D:\Documents and Settings\Rodexx\Рабочий стол\Cephalgy - Herzschlag (2CD)\Cephalgy  - Herzschlag (CD2).wav
     Пиковый уровень 99.4 %
     Качество диапазона 99.9 %
     CRC теста DC3BD86E
     CRC копии DC3BD86E
     Копирование... OK
Ошибок не произошло
Конец отчёта
Label: Out Of Line
Catalog#: OUT 311 | 312
Format: CD, Album
CD, EP
Country: Germany
Released: Oct 2008
Genre: Electronic
Style: EBM, Industrial
Правила, инструкции, FAQ!!!
Торрент  Добавлен [26 июн 2020, 20:30] Скачать торрент Магнет ссылка
Скачать торрент
[ Размер 14.81 КБ / Просмотров 10 ]

Статус
Проверен 
 
Размер  708.66 МБ
Приватный: Нет (DHT включён)
.torrent скачан  0
 


     Отправить личное сообщение
   
Страница 1 из 1
Показать сообщения за:  Поле сортировки  
Начать новую тему Ответить на тему


Сейчас этот форум просматривают: нет зарегистрированных пользователей и гости: 0


Вы не можете начинать темы
Вы не можете отвечать на сообщения
Вы не можете редактировать свои сообщения
Вы не можете удалять свои сообщения
Вы не можете добавлять вложения

Перейти:  
cron