Начать новую тему Ответить на тему
Статистика раздачи
Размер: 304.89 МБ | Добавлен: 26 июн 2020, 18:56 | Скачали: 0
Сидеров: 0  [0 байт/сек]    Личеров: 0  [0 байт/сек]
Пред. тема | След. тема 

Автор
Сообщение

СообщениеДобавлено: 26 июн 2020, 18:56 

Ответить с цитатой 

Carphax Files - Revolutions Vol.1: Dirt
Жанр: EBM, Industrial
Год выпуска диска: 2008
Производитель диска: USA - Cop International
Аудио кодек: APE
Тип рипа: image+.cue
Битрейт аудио: lossless
Продолжительность: 43:59
Источник: Собственный рип.
Трэклист:
01. Constitutionalize (4:23)
02. Landmines (4:27)
03. Murder (3:23)
04. No More Man (4:12)
05. Kill Your Crush (4:59)
06. System Collapse (4:11)
07. Godmakers (3:58)
08. Laser Beams (5:00)
09. Sanity Clothes (5:01)
10. God 3.0 (4:20)
Доп. информация: Второй альбом американской формации. ИМХО значительно сопливей и "ибеэмистей" первого, но послушать можно от нечего делать...
Exact Audio Copy V0.99 prebeta 5 from 4. May 2009
EAC extraction logfile from 18. March 2010, 21:02
Carphax Files / Revolutions Vol.1: Dirt
Used drive : PIONEER DVD-RW DVR-112D Adapter: 0 ID: 0
Read mode : Secure
Utilize accurate stream : Yes
Defeat audio cache : Yes
Make use of C2 pointers : No
Read offset correction : 48
Overread into Lead-In and Lead-Out : Yes
Fill up missing offset samples with silence : Yes
Delete leading and trailing silent blocks : No
Null samples used in CRC calculations : Yes
Used interface : Native Win32 interface for Win NT & 2000
Used output format : Internal WAV Routines
Sample format : 44.100 Hz; 16 Bit; Stereo
TOC of the extracted CD
Track | Start | Length | Start sector | End sector
---------------------------------------------------------
1 | 0:00.01 | 4:23.10 | 1 | 19735
2 | 4:23.11 | 4:21.44 | 19736 | 39354
3 | 8:44.55 | 4:27.15 | 39355 | 59394
4 | 13:11.70 | 3:23.15 | 59395 | 74634
5 | 16:35.10 | 4:11.68 | 74635 | 93527
6 | 20:47.03 | 4:58.50 | 93528 | 115927
7 | 25:45.53 | 4:11.34 | 115928 | 134786
8 | 29:57.12 | 3:58.04 | 134787 | 152640
9 | 33:55.16 | 5:00.34 | 152641 | 175174
10 | 38:55.50 | 5:03.45 | 175175 | 197944
Range status and errors
Selected range
Filename C:\audiograbber\Ripping\Carphax Files - Revolutions Vol1 Dirt.wav
Peak level 100.0 %
Range quality 99.9 %
Test CRC DDB2DE2F
Copy CRC DDB2DE2F
Copy OK
No errors occurred
AccurateRip summary
Track 1 not present in database
Track 2 not present in database
Track 3 not present in database
Track 4 not present in database
Track 5 not present in database
Track 6 not present in database
Track 7 not present in database
Track 8 not present in database
Track 9 not present in database
Track 10 not present in database
None of the tracks are present in the AccurateRip database
End of status report
http://www.carphaxfiles.com/ и сайтик какой-то бедненький однако
Правила, инструкции, FAQ!!!
Торрент  Добавлен [26 июн 2020, 18:56] Скачать торрент Магнет ссылка
Скачать торрент
[ Размер 12.58 КБ / Просмотров 5 ]

Статус
Проверен 
 
Размер  304.89 МБ
Приватный: Нет (DHT включён)
.torrent скачан  0
 


     Отправить личное сообщение
   
Страница 1 из 1
Показать сообщения за:  Поле сортировки  
Начать новую тему Ответить на тему


Сейчас этот форум просматривают: нет зарегистрированных пользователей и гости: 0


Вы не можете начинать темы
Вы не можете отвечать на сообщения
Вы не можете редактировать свои сообщения
Вы не можете удалять свои сообщения
Вы не можете добавлять вложения

Перейти:  
cron