Начать новую тему Ответить на тему
Статистика раздачи
Размер: 393.69 МБ | Добавлен: 26 июн 2020, 21:07 | Скачали: 0
Сидеров: 0  [0 байт/сек]    Личеров: 0  [0 байт/сек]
Пред. тема | След. тема 

Автор
Сообщение

СообщениеДобавлено: 26 июн 2020, 21:07 

Ответить с цитатой 

Brain Leisure - Mindfire
Жанр: EBM, Industrial
Год выпуска диска: 1994
Производитель диска: US
Аудио кодек: FLAC
Тип рипа: tracks+.cue
Битрейт аудио: lossless
Трэклист:
Eternal Part 1 (2:52)
2 Dreadful Hate (7:13)
3 Discipline Us (5:58)
4 MindFire (5:25)
5 Eternal Part 2 (3:58)
6 Million Faces (6:14)
7 Never Trust A Smile (4:28)
8 Teknology (5:23)
9 Preach (Club Mix) (6:00)
10 Beyond The Limits (8:41)
11 Eternal Part 3 (4:29)
Exact Audio Copy V0.99 prebeta 4 from 23. January 2008
EAC extraction logfile from 15. April 2008, 20:59
Brain Leisure / Mindfire
Used drive : SONY DVD RW AW-Q170A Adapter: 0 ID: 0
Read mode : Secure
Utilize accurate stream : Yes
Defeat audio cache : Yes
Make use of C2 pointers : No
Read offset correction : 48
Overread into Lead-In and Lead-Out : No
Fill up missing offset samples with silence : Yes
Delete leading and trailing silent blocks : No
Null samples used in CRC calculations : Yes
Used interface : Native Win32 interface for Win NT & 2000
Gap handling : Appended to previous track
Used output format : User Defined Encoder
Selected bitrate : 128 kBit/s
Quality : High
Add ID3 tag : No
Command line compressor : C:\Program Files\flac-1.1.4-win\bin\flac.exe
Additional command line options : -8 -A tukey(0.25) -A gauss(0.1875) -b 4096 -V -T "artist=%a" -T "title=%t" -T "album=%g" -T "date=%y" -T "tracknumber=%n" -T "genre=%m" %s --sector-align
TOC of the extracted CD
Track | Start | Length | Start sector | End sector
---------------------------------------------------------
1 | 0:00.50 | 2:54.55 | 50 | 13154
2 | 2:55.30 | 7:17.05 | 13155 | 45934
3 | 10:12.35 | 6:00.27 | 45935 | 72961
4 | 16:12.62 | 5:26.70 | 72962 | 97481
5 | 21:39.57 | 4:00.30 | 97482 | 115511
6 | 25:40.12 | 0:21.70 | 115512 | 117156
7 | 26:02.07 | 5:39.20 | 117157 | 142601
8 | 31:41.27 | 4:30.45 | 142602 | 162896
9 | 36:11.72 | 11:26.25 | 162897 | 214371
10 | 47:38.22 | 8:42.23 | 214372 | 253544
11 | 56:20.45 | 5:25.15 | 253545 | 277934
Track 1
Filename Y:\Mindfire\01 - Eternal Part 1.wav
Pre-gap length 0:00:02.66
Peak level 80.8 %
Track quality 100.0 %
Test CRC 84215682
Copy CRC 84215682
Track not present in AccurateRip database
Copy OK
Track 2
Filename Y:\Mindfire\02 - Deadful Hate.wav
Pre-gap length 0:00:01.61
Peak level 81.1 %
Track quality 100.0 %
Test CRC 84449996
Copy CRC 84449996
Track not present in AccurateRip database
Copy OK
Track 3
Filename Y:\Mindfire\03 - Discipline Us.wav
Pre-gap length 0:00:01.62
Peak level 81.4 %
Track quality 100.0 %
Test CRC AC7EDF18
Copy CRC AC7EDF18
Track not present in AccurateRip database
Copy OK
Track 4
Filename Y:\Mindfire\04 - Mindfire.wav
Pre-gap length 0:00:01.62
Peak level 81.2 %
Track quality 100.0 %
Test CRC 94E30D3F
Copy CRC 94E30D3F
Track not present in AccurateRip database
Copy OK
Track 5
Filename Y:\Mindfire\05 - Eternal Part 2.wav
Pre-gap length 0:00:01.58
Peak level 81.7 %
Track quality 99.9 %
Test CRC CDB30EC1
Copy CRC CDB30EC1
Track not present in AccurateRip database
Copy OK
Track 6
Filename Y:\Mindfire\06 - Million Faces.wav
Pre-gap length 0:00:01.57
Peak level 40.4 %
Track quality 100.0 %
Test CRC 6991B373
Copy CRC 6991B373
Track not present in AccurateRip database
Copy OK
Track 7
Filename Y:\Mindfire\07 - Never Trust a Smile.wav
Peak level 83.8 %
Track quality 100.0 %
Test CRC 92B5F3BF
Copy CRC 92B5F3BF
Track not present in AccurateRip database
Copy OK
Track 8
Filename Y:\Mindfire\08 - Teknology.wav
Peak level 83.8 %
Track quality 100.0 %
Test CRC 0E69A05B
Copy CRC 0E69A05B
Track not present in AccurateRip database
Copy OK
Track 9
Filename Y:\Mindfire\09 - Peach (club Mix).wav
Pre-gap length 0:00:01.58
Peak level 85.0 %
Track quality 99.9 %
Test CRC 8980A081
Copy CRC 8980A081
Track not present in AccurateRip database
Copy OK
Track 10
Filename Y:\Mindfire\10 - Beyond the Limits.wav
Pre-gap length 0:00:01.61
Peak level 87.4 %
Track quality 100.0 %
Test CRC B695C002
Copy CRC B695C002
Track not present in AccurateRip database
Copy OK
Track 11
Filename Y:\Mindfire\11 - Eternal Part 3.wav
Pre-gap length 0:00:01.45
Peak level 88.0 %
Track quality 100.0 %
Test CRC F3126B48
Copy CRC F3126B48
Track not present in AccurateRip database
Copy OK
None of the tracks are present in the AccurateRip database
No errors occurred
End of status report
Один из лучших электро-индустриальных проектов , который можно смело поставить в один ряд с лучшими группамии родственными BRAIN LEISURE таких, как LEAETHER STRIP, F.L.A., SKINNY PUPPY и VELVET ACID CHRIST
Правила, инструкции, FAQ!!!
Торрент  Добавлен [26 июн 2020, 21:07] Скачать торрент Магнет ссылка
Скачать торрент
[ Размер 16.5 КБ / Просмотров 9 ]

Статус
Проверен 
 
Размер  393.69 МБ
Приватный: Нет (DHT включён)
.torrent скачан  0
 


     Отправить личное сообщение
   
Страница 1 из 1
Показать сообщения за:  Поле сортировки  
Начать новую тему Ответить на тему


Сейчас этот форум просматривают: нет зарегистрированных пользователей и гости: 0


Вы не можете начинать темы
Вы не можете отвечать на сообщения
Вы не можете редактировать свои сообщения
Вы не можете удалять свои сообщения
Вы не можете добавлять вложения

Перейти:  
cron