Начать новую тему Ответить на тему
Статистика раздачи
Размер: 178.99 МБ | Добавлен: 26 июн 2020, 17:51 | Скачали: 0
Сидеров: 0  [0 байт/сек]    Личеров: 0  [0 байт/сек]
Пред. тема | След. тема 

Автор
Сообщение

СообщениеДобавлено: 26 июн 2020, 17:51 

Ответить с цитатой 

Bodycall / Reiteration
Жанр: EBM, Industrial
Носитель: CDR
Страна-производитель диска (релиза): Poland
Год издания: 2010
Издатель (лейбл): Halotan Records
Номер по каталогу: HLR-01
Страна исполнителя (группы): Poland
Аудиокодек: FLAC (*.flac)
Тип рипа: image+.cue
Продолжительность: 00:23:56
Источник: собственный рип
Наличие сканов в содержимом раздачи: нет
Треклист:
01. Naked Life (Biometric Mix) 4:14
02. My War (Version 5) 3:41
03. Disintegration (Chaos Mix) 5:00
04. Dancing In The Dark (Cold Mix) 4:18
05. My War 3:12
06. Reiteration 3:21
Код:
Exact Audio Copy V1.0 beta 3 from 29. August 2011
Отчёт EAC об извлечении, выполненном 27. февраля 2020, 10:42
Bodycall / Reiteration
Дисковод: TSSTcorpCDDVDW SH-224DB   Adapter: 1  ID: 0
Режим чтения                 : Достоверность
Использование точного потока : Да
Отключение кэша аудио        : Да
Использование указателей C2  : Нет
Коррекция смещения при чтении                     : 6
Способность читать области Lead-in и Lead-out     : Нет
Заполнение пропущенных сэмплов тишиной            : Да
Удаление блоков с тишиной в начале и конце        : Нет
При вычислениях CRC использовались нулевые сэмплы : Да
Интерфейс                                         : Встроенный Win32-интерфейс для Win NT/2000
Выходной формат          : Пользовательский кодировщик
Выбранный битрейт        : 128 kBit/s
Качество                 : Высокий
Добавление ID3-тега      : Нет
Утилита сжатия           : C:\Program Files (x86)\FLAC\flac.exe
Дополнительные параметры : -V -8 -T "Date=%year%" -T "Genre=%genre%" %source%
TOC извлечённого CD
     Трек |   Старт  | Длительность | Начальный сектор | Конечный сектор
    ---------------------------------------------------------------------
       1  |  0:00.00 |    4:16.33   |           0      |      19232
       2  |  4:16.33 |    3:42.40   |       19233      |      35922
       3  |  7:58.73 |    5:01.62   |       35923      |      58559
       4  | 13:00.60 |    4:20.11   |       58560      |      78070
       5  | 17:20.71 |    3:13.48   |       78071      |      92593
       6  | 20:34.44 |    3:20.44   |       92594      |     107637
       7  | 26:27.13 |   27:58.03   |      119038      |     244890
Характеристики диапазона извлечения и сообщения об ошибках
Выбранный диапазон
     Имя файла C:\EAC\Bodycall ‎– Reiteration - 2010 CDR EP (Halotan Records - HLR-01)\Bodycall - Reiteration.wav
     Пиковый уровень 96.6 %
     Скорость извлечения 2.6 X
     Качество диапазона 100.0 %
     CRC теста F811C710
     CRC копии F811C710
     Копирование... OK
Ошибок не произошло
AccurateRip: сводка
Трек  1  : извлечено точно (доверие 1)  [FAD54B42]  (AR v2)
Трек  2  : извлечено точно (доверие 1)  [ABDA96DD]  (AR v2)
Трек  3  : извлечено точно (доверие 1)  [4446B9DC]  (AR v2)
Трек  4  : извлечено точно (доверие 1)  [89E57FDC]  (AR v2)
Трек  5  : извлечено точно (доверие 1)  [C6B40DE9]  (AR v2)
Трек  6  : извлечено точно (доверие 1)  [B6952CF8]  (AR v2)
Все треки извлечены точно
Конец отчёта
==== Контрольная сумма отчёта 83B9573BDA3F195A0CB82D18ED8FEF0E9F5FC18BD9DEFD1E88CB963BF01CEF09 ====
Код:
REM DATE 2010
REM DISCID 580CC107
REM COMMENT "ExactAudioCopy v1.0b3"
PERFORMER "Bodycall"
TITLE "Reiteration"
FILE "Bodycall - Reiteration.flac" WAVE
  TRACK 01 AUDIO
    TITLE "Naked Life (Biometric Mix)"
    PERFORMER "Bodycall"
    INDEX 01 00:00:00
  TRACK 02 AUDIO
    TITLE "My War (Version 5)"
    PERFORMER "Bodycall"
    INDEX 00 04:14:33
    INDEX 01 04:16:33
  TRACK 03 AUDIO
    TITLE "Disintegration (Chaos Mix)"
    PERFORMER "Bodycall"
    INDEX 00 07:56:73
    INDEX 01 07:58:73
  TRACK 04 AUDIO
    TITLE "Dancing in the Dark (Cold Mix)"
    PERFORMER "Bodycall"
    INDEX 00 12:58:60
    INDEX 01 13:00:60
  TRACK 05 AUDIO
    TITLE "My War"
    PERFORMER "Bodycall"
    INDEX 00 17:18:71
    INDEX 01 17:20:71
  TRACK 06 AUDIO
    TITLE "Reiteration"
    PERFORMER "Bodycall"
    INDEX 00 20:32:44
    INDEX 01 20:34:44
Правила, инструкции, FAQ!!!
Торрент  Добавлен [26 июн 2020, 17:51] Скачать торрент Магнет ссылка
Скачать торрент
[ Размер 14.65 КБ / Просмотров 11 ]

Статус
Проверен 
 
Размер  178.99 МБ
Приватный: Нет (DHT включён)
.torrent скачан  0
 


     Отправить личное сообщение
   
Страница 1 из 1
Показать сообщения за:  Поле сортировки  
Начать новую тему Ответить на тему


Сейчас этот форум просматривают: нет зарегистрированных пользователей и гости: 0


Вы не можете начинать темы
Вы не можете отвечать на сообщения
Вы не можете редактировать свои сообщения
Вы не можете удалять свои сообщения
Вы не можете добавлять вложения

Перейти:  
cron