Начать новую тему Ответить на тему
Статистика раздачи
Размер: 447.54 МБ | Добавлен: 26 июн 2020, 17:23 | Скачали: 0
Сидеров: 0  [0 байт/сек]    Личеров: 0  [0 байт/сек]
Пред. тема | След. тема 

Автор
Сообщение

СообщениеДобавлено: 26 июн 2020, 17:23 

Ответить с цитатой 

Various - Body Rapture 6
Жанр: EBM, Industrial
Страна-производитель диска: Германия
Год издания диска: 1996
Страна: Германия
Аудиокодек: FLAC (*.flac)
Тип рипа: image+.cue
Битрейт аудио: lossless
Продолжительность: 66:24
Источник (релизер): собственный рип
Наличие сканов в содержимом раздачи: да
Треклист:
01. Frontline Assembly - Replicant [5:13]
02. Apoptygma Berzerk - Half Asleep [4:53]
03. And One - Deutschmaschine [4:25]
04. p.a.l. - Das Gelobnis [3:35]
05. X Marks the Pedwalk - Monomaniac (remix) [4:57]
06. Cybertech - Human [4:57]
07. Neuroactive - Neuron (Denatured remix) [4:55]
08. Decoded Feedback - Mother Tenebrarum [4:43]
09. X-rossive - Der Mensch [4:36]
10. Birmingham 6 - Policestate (Mind Bladder dub) [5:30]
11. Eco - Schmutz (Bad Man mix) [5:59]
12. Sea of Sin - Last Day in Paradise [4:41]
13. Index - Shadows [3:55]
14. Trylok - Reforce [3:58]
Код:
Exact Audio Copy V1.0 beta 1 from 15. November 2010
EAC extraction logfile from 26. June 2011, 5:13
Various / Body Rapture 6
Used drive  : Optiarc DVD RW AD-7240S   Adapter: 0  ID: 0
Read mode               : Secure
Utilize accurate stream : Yes
Defeat audio cache      : Yes
Make use of C2 pointers : No
Read offset correction                      : 48
Overread into Lead-In and Lead-Out          : No
Fill up missing offset samples with silence : Yes
Delete leading and trailing silent blocks   : No
Null samples used in CRC calculations       : No
Used interface                              : Native Win32 interface for Win NT & 2000
Used output format : Internal WAV Routines
Sample format      : 44.100 Hz; 16 Bit; Stereo
TOC of the extracted CD
     Track |   Start  |  Length  | Start sector | End sector
    ---------------------------------------------------------
        1  |  0:00.00 |  5:13.71 |         0    |    23545
        2  |  5:13.71 |  4:53.37 |     23546    |    45557
        3  | 10:07.33 |  4:25.47 |     45558    |    65479
        4  | 14:33.05 |  3:35.65 |     65480    |    81669
        5  | 18:08.70 |  4:57.59 |     81670    |   104003
        6  | 23:06.54 |  4:57.30 |    104004    |   126308
        7  | 28:04.09 |  4:55.04 |    126309    |   148437
        8  | 32:59.13 |  4:43.31 |    148438    |   169693
        9  | 37:42.44 |  4:36.15 |    169694    |   190408
       10  | 42:18.59 |  5:30.39 |    190409    |   215197
       11  | 47:49.23 |  5:59.16 |    215198    |   242138
       12  | 53:48.39 |  4:41.23 |    242139    |   263236
       13  | 58:29.62 |  3:55.62 |    263237    |   280923
       14  | 62:25.49 |  3:58.43 |    280924    |   298816
Range status and errors
Selected range
     Filename G:\All_Music\Various - Body Rapture 6.wav
     Peak level 100.0 %
     Extraction speed 0.2 X
     Range quality 100.0 %
     Copy CRC 4BC4DF81
     Copy OK
No errors occurred
AccurateRip summary
Track  1  accurately ripped (confidence 1)  [2156679B]
Track  2  accurately ripped (confidence 1)  [53529D76]
Track  3  accurately ripped (confidence 1)  [372A6719]
Track  4  accurately ripped (confidence 1)  [59E65D2F]
Track  5  accurately ripped (confidence 1)  [FF0AA02A]
Track  6  accurately ripped (confidence 1)  [2D03E5F7]
Track  7  accurately ripped (confidence 1)  [26160E5D]
Track  8  accurately ripped (confidence 1)  [48AB40E6]
Track  9  accurately ripped (confidence 1)  [31550DAF]
Track 10  accurately ripped (confidence 1)  [208190DA]
Track 11  accurately ripped (confidence 1)  [649981A8]
Track 12  accurately ripped (confidence 1)  [BC22FB84]
Track 13  accurately ripped (confidence 1)  [54225009]
Track 14  accurately ripped (confidence 1)  [91E9CAF7]
All tracks accurately ripped
End of status report
Код:
REM GENRE Other
REM DISCID C60F900E
REM COMMENT "ExactAudioCopy v1.0b1"
PERFORMER "Various"
TITLE "Body Rapture 6"
FILE "Various - Body Rapture 6.flac" WAVE
  TRACK 01 AUDIO
    TITLE "Replicant"
    PERFORMER "Frontline Assembly"
    FLAGS DCP
    INDEX 01 00:00:00
  TRACK 02 AUDIO
    TITLE "Half Asleep"
    PERFORMER "Apoptygma Berzerk"
    FLAGS DCP
    INDEX 00 05:12:26
    INDEX 01 05:13:71
  TRACK 03 AUDIO
    TITLE "Deutschmaschine"
    PERFORMER "And One"
    FLAGS DCP
    INDEX 00 10:05:64
    INDEX 01 10:07:33
  TRACK 04 AUDIO
    TITLE "Das Gelobnis"
    PERFORMER "p.a.l."
    FLAGS DCP
    INDEX 00 14:31:39
    INDEX 01 14:33:05
  TRACK 05 AUDIO
    TITLE "Monomaniac (remix)"
    PERFORMER "X Marks the Pedwalk"
    FLAGS DCP
    INDEX 00 18:07:25
    INDEX 01 18:08:70
  TRACK 06 AUDIO
    TITLE "Human"
    PERFORMER "Cybertech"
    FLAGS DCP
    INDEX 00 23:05:10
    INDEX 01 23:06:54
  TRACK 07 AUDIO
    TITLE "Neuron (Denatured remix)"
    PERFORMER "Neuroactive"
    FLAGS DCP
    INDEX 00 28:02:41
    INDEX 01 28:04:09
  TRACK 08 AUDIO
    TITLE "Mother Tenebrarum"
    PERFORMER "Decoded Feedback"
    FLAGS DCP
    INDEX 00 32:57:43
    INDEX 01 32:59:13
  TRACK 09 AUDIO
    TITLE "Der Mensch"
    PERFORMER "X-rossive"
    FLAGS DCP
    INDEX 00 37:40:74
    INDEX 01 37:42:44
  TRACK 10 AUDIO
    TITLE "Policestate (Mind Bladder dub)"
    PERFORMER "Birmingham 6"
    FLAGS DCP
    INDEX 00 42:17:18
    INDEX 01 42:18:59
  TRACK 11 AUDIO
    TITLE "Schmutz (Bad Man mix)"
    PERFORMER "Eco"
    FLAGS DCP
    INDEX 00 47:47:57
    INDEX 01 47:49:23
  TRACK 12 AUDIO
    TITLE "Last Day in Paradise"
    PERFORMER "Sea of Sin"
    FLAGS DCP
    INDEX 00 53:46:69
    INDEX 01 53:48:39
  TRACK 13 AUDIO
    TITLE "Shadows"
    PERFORMER "Index"
    FLAGS DCP
    INDEX 00 58:28:18
    INDEX 01 58:29:62
  TRACK 14 AUDIO
    TITLE "Reforce"
    PERFORMER "Trylok"
    FLAGS DCP
    INDEX 00 62:24:04
    INDEX 01 62:25:49
Правила, инструкции, FAQ!!!
Торрент  Добавлен [26 июн 2020, 17:23] Скачать торрент Магнет ссылка
Скачать торрент
[ Размер 18.34 КБ / Просмотров 12 ]

Статус
Проверен 
 
Размер  447.54 МБ
Приватный: Нет (DHT включён)
.torrent скачан  0
 


     Отправить личное сообщение
   
Страница 1 из 1
Показать сообщения за:  Поле сортировки  
Начать новую тему Ответить на тему


Сейчас этот форум просматривают: нет зарегистрированных пользователей и гости: 0


Вы не можете начинать темы
Вы не можете отвечать на сообщения
Вы не можете редактировать свои сообщения
Вы не можете удалять свои сообщения
Вы не можете добавлять вложения

Перейти:  
cron