Начать новую тему Ответить на тему
Статистика раздачи
Размер: 401.61 МБ | Добавлен: 26 июн 2020, 17:09 | Скачали: 0
Сидеров: 0  [0 байт/сек]    Личеров: 0  [0 байт/сек]
Пред. тема | След. тема 

Автор
Сообщение

СообщениеДобавлено: 26 июн 2020, 17:09 

Ответить с цитатой 

K-Bereit / Positiv Sound / Negativ Beat
Жанр: EBM, Industrial
Страна-производитель диска: Italy
Год издания: 2012
Издатель (лейбл): EK Product
Номер по каталогу: EKPCD010
Формат: CD, Album, Digipak
Аудиокодек: FLAC (*.flac)
Тип рипа: image+.cue
Битрейт аудио: lossless
Продолжительность: 0:54:00.02
Источник (релизер): Физический носитель (Собственный рип с оригинала)
Наличие сканов в содержимом раздачи: да
Треклист:
01. Lesson One [4:34]
02. Miss N [4:13]
03. Drunk [4:02]
04. Start Running [3:45]
05. Use Your Strap On [3:50]
06. Plug & Play [3:38]
07. Y+M+H [3:33]
08. Want You, Bitch [3:43]
09. Fist Of Fire [3:30]
10. On The Way [3:27]
11. Last Night [3:32]
12. Lesson One [Move Your Ass Bitch Remix By Dolls Of Pain] [4:41]
13. Lesson One [Powermachine Remix By Human Steel] [3:09]
14. Lesson One [Newspeak Remix By Punish Yourself Vs. Sonic Area] [4:24]
Код:
Exact Audio Copy V1.0 beta 3 from 29. August 2011
EAC extraction logfile from 5. June 2012, 20:08
K-Bereit / Positiv Sound / Negativ Beat
Used drive  : PLEXTOR BDDVDR PX-B320SA   Adapter: 3  ID: 1
Read mode               : Secure
Utilize accurate stream : Yes
Defeat audio cache      : Yes
Make use of C2 pointers : No
Read offset correction                      : 6
Overread into Lead-In and Lead-Out          : No
Fill up missing offset samples with silence : Yes
Delete leading and trailing silent blocks   : No
Null samples used in CRC calculations       : Yes
Used interface                              : Installed external ASPI interface
Used output format              : User Defined Encoder
Selected bitrate                : 128 kBit/s
Quality                         : High
Add ID3 tag                     : No
Command line compressor         : C:\Program Files (x86)\FLAC\flac.exe
Additional command line options : -V -8 -T "Date=%year%" -T "Genre=%genre%" %source%
TOC of the extracted CD
     Track |   Start  |  Length  | Start sector | End sector
    ---------------------------------------------------------
        1  |  0:00.00 |  4:34.04 |         0    |    20553
        2  |  4:34.04 |  4:12.51 |     20554    |    39504
        3  |  8:46.55 |  4:01.72 |     39505    |    57651
        4  | 12:48.52 |  3:45.07 |     57652    |    74533
        5  | 16:33.59 |  3:49.66 |     74534    |    91774
        6  | 20:23.50 |  3:38.24 |     91775    |   108148
        7  | 24:01.74 |  3:33.16 |    108149    |   124139
        8  | 27:35.15 |  3:43.05 |    124140    |   140869
        9  | 31:18.20 |  3:29.32 |    140870    |   156576
       10  | 34:47.52 |  3:26.68 |    156577    |   172094
       11  | 38:14.45 |  3:32.00 |    172095    |   187994
       12  | 41:46.45 |  4:41.00 |    187995    |   209069
       13  | 46:27.45 |  3:08.34 |    209070    |   223203
       14  | 49:36.04 |  4:23.73 |    223204    |   243001
Range status and errors
Selected range
     Filename D:\K-Bereit - Positiv Sound _ Negativ Beat (2012)\K-Bereit - Positiv Sound _ Negativ Beat.wav
     Peak level 100.0 %
     Extraction speed 7.5 X
     Range quality 99.9 %
     Test CRC 730487D0
     Copy CRC 730487D0
     Copy OK
No errors occurred
AccurateRip summary
Track  1  not present in database
Track  2  not present in database
Track  3  not present in database
Track  4  not present in database
Track  5  not present in database
Track  6  not present in database
Track  7  not present in database
Track  8  not present in database
Track  9  not present in database
Track 10  not present in database
Track 11  not present in database
Track 12  not present in database
Track 13  not present in database
Track 14  not present in database
None of the tracks are present in the AccurateRip database
End of status report
==== Log checksum 500809E9D2BD05739D75237D401A508C719E31C1343672A95F765D1A30B46E97 ====
Раздача осуществляется исключительно в ознакомительных целях!
Всем, кому понравилось, после ознакомления, советую приобрести лицензионный диск, и тем самым поддержать исполнителя !
Handing out is carried out only to get acquainted!
Everyone who likes, I advise to follow my example and buy a license legally CD, and thus support the artist!
Правила, инструкции, FAQ!!!
Торрент  Добавлен [26 июн 2020, 17:09] Скачать торрент Магнет ссылка
Скачать торрент
[ Размер 16.6 КБ / Просмотров 4 ]

Статус
Проверен 
 
Размер  401.61 МБ
Приватный: Нет (DHT включён)
.torrent скачан  0
 


     Отправить личное сообщение
   
Страница 1 из 1
Показать сообщения за:  Поле сортировки  
Начать новую тему Ответить на тему


Сейчас этот форум просматривают: нет зарегистрированных пользователей и гости: 0


Вы не можете начинать темы
Вы не можете отвечать на сообщения
Вы не можете редактировать свои сообщения
Вы не можете удалять свои сообщения
Вы не можете добавлять вложения

Перейти:  
cron