Начать новую тему Ответить на тему
Статистика раздачи
Размер: 451.76 МБ | Добавлен: 26 июн 2020, 16:55 | Скачали: 0
Сидеров: 0  [0 байт/сек]    Личеров: 0  [0 байт/сек]
Пред. тема | След. тема 

Автор
Сообщение

СообщениеДобавлено: 26 июн 2020, 16:55 

Ответить с цитатой 

K-Bereit / Distört Neural Unit
Жанр: EBM, Industrial
Страна-производитель диска: US
Год издания: 2009
Издатель (лейбл): Sigsaly Transmissions
Формат: CD, Album
Номер по каталогу: SIGCD003
Аудиокодек: FLAC (*.flac)
Тип рипа: image+.cue
Битрейт аудио: lossless
Продолжительность: 1:10:57.10
Источник (релизер): Физический носитель (Собственный рип с оригинала)
Наличие сканов в содержимом раздачи: да
Треклист:
01. None [4:41]
02. 4LIF3 [3:35]
03. Whatever May Come [3:39]
04. Liar [3:43]
05. Virus K [3:45]
06. If Only... [2:59]
07. War [3:49]
08. Use Your Strap On! [3:32]
09. Mutilation [4:15]
10. In/Visible [3:54]
11. Race Against Time [3:52]
---
12. Psychosomatik - H5N1 [5:15]
13. Psychosomatik - Ground Zero [3:37]
14. Under All - My Kiss [5:57]
15. Under All - Whip Me [5:34]
---
60. K-Bereit (feat. Mika Rossi of Autodafeh) - Like A Bullet From A Gun (Illicit Version) [3:59]
Код:
Exact Audio Copy V1.0 beta 3 from 29. August 2011
EAC extraction logfile from 21. April 2012, 16:00
K-Bereit / Distört Neural Unit
Used drive  : PLEXTOR BDDVDR PX-B320SA   Adapter: 0  ID: 2
Read mode               : Secure
Utilize accurate stream : Yes
Defeat audio cache      : Yes
Make use of C2 pointers : No
Read offset correction                      : 6
Overread into Lead-In and Lead-Out          : No
Fill up missing offset samples with silence : Yes
Delete leading and trailing silent blocks   : No
Null samples used in CRC calculations       : Yes
Used interface                              : Native Win32 interface for Win NT & 2000
Used output format              : User Defined Encoder
Selected bitrate                : 128 kBit/s
Quality                         : High
Add ID3 tag                     : No
Command line compressor         : C:\Program Files (x86)\FLAC\flac.exe
Additional command line options : -V -8 -T "Date=%year%" -T "Genre=%genre%" %source%
TOC of the extracted CD
     Track |   Start  |  Length  | Start sector | End sector
    ---------------------------------------------------------
        1  |  0:00.00 |  4:40.63 |         0    |    21062
        2  |  4:40.63 |  3:35.32 |     21063    |    37219
        3  |  8:16.20 |  3:39.07 |     37220    |    53651
        4  | 11:55.27 |  3:42.46 |     53652    |    70347
        5  | 15:37.73 |  3:45.30 |     70348    |    87252
        6  | 19:23.28 |  2:58.45 |     87253    |   100647
        7  | 22:21.73 |  3:49.13 |    100648    |   117835
        8  | 26:11.11 |  3:32.09 |    117836    |   133744
        9  | 29:43.20 |  4:15.25 |    133745    |   152894
       10  | 33:58.45 |  3:53.55 |    152895    |   170424
       11  | 37:52.25 |  3:52.36 |    170425    |   187860
       12  | 41:44.61 |  5:14.61 |    187861    |   211471
       13  | 46:59.47 |  3:36.70 |    211472    |   227741
       14  | 50:36.42 |  5:57.00 |    227742    |   254516
       15  | 56:33.42 |  5:33.64 |    254517    |   279555
       16  | 62:07.31 |  0:06.47 |    279556    |   280052
       17  | 62:14.03 |  0:06.47 |    280053    |   280549
       18  | 62:20.50 |  0:06.45 |    280550    |   281044
       19  | 62:27.20 |  0:06.44 |    281045    |   281538
       20  | 62:33.64 |  0:06.43 |    281539    |   282031
       21  | 62:40.32 |  0:06.45 |    282032    |   282526
       22  | 62:47.02 |  0:06.45 |    282527    |   283021
       23  | 62:53.47 |  0:06.45 |    283022    |   283516
       24  | 63:00.17 |  0:06.45 |    283517    |   284011
       25  | 63:06.62 |  0:06.45 |    284012    |   284506
       26  | 63:13.32 |  0:06.45 |    284507    |   285001
       27  | 63:20.02 |  0:06.45 |    285002    |   285496
       28  | 63:26.47 |  0:06.45 |    285497    |   285991
       29  | 63:33.17 |  0:06.45 |    285992    |   286486
       30  | 63:39.62 |  0:06.45 |    286487    |   286981
       31  | 63:46.32 |  0:06.45 |    286982    |   287476
       32  | 63:53.02 |  0:06.45 |    287477    |   287971
       33  | 63:59.47 |  0:06.45 |    287972    |   288466
       34  | 64:06.17 |  0:06.45 |    288467    |   288961
       35  | 64:12.62 |  0:06.45 |    288962    |   289456
       36  | 64:19.32 |  0:06.43 |    289457    |   289949
       37  | 64:26.00 |  0:06.45 |    289950    |   290444
       38  | 64:32.45 |  0:06.44 |    290445    |   290938
       39  | 64:39.14 |  0:06.43 |    290939    |   291431
       40  | 64:45.57 |  0:06.45 |    291432    |   291926
       41  | 64:52.27 |  0:06.46 |    291927    |   292422
       42  | 64:58.73 |  0:06.45 |    292423    |   292917
       43  | 65:05.43 |  0:06.45 |    292918    |   293412
       44  | 65:12.13 |  0:06.45 |    293413    |   293907
       45  | 65:18.58 |  0:06.45 |    293908    |   294402
       46  | 65:25.28 |  0:06.45 |    294403    |   294897
       47  | 65:31.73 |  0:06.45 |    294898    |   295392
       48  | 65:38.43 |  0:06.45 |    295393    |   295887
       49  | 65:45.13 |  0:06.45 |    295888    |   296382
       50  | 65:51.58 |  0:06.45 |    296383    |   296877
       51  | 65:58.28 |  0:06.45 |    296878    |   297372
       52  | 66:04.73 |  0:06.45 |    297373    |   297867
       53  | 66:11.43 |  0:06.45 |    297868    |   298362
       54  | 66:18.13 |  0:06.45 |    298363    |   298857
       55  | 66:24.58 |  0:06.45 |    298858    |   299352
       56  | 66:31.28 |  0:06.45 |    299353    |   299847
       57  | 66:37.73 |  0:06.45 |    299848    |   300342
       58  | 66:44.43 |  0:06.45 |    300343    |   300837
       59  | 66:51.13 |  0:06.45 |    300838    |   301332
       60  | 66:57.58 |  3:59.27 |    301333    |   319284
Range status and errors
Selected range
     Filename D:\K-Bereit - Distort Neural Unit (2009)\K-Bereit - Distort Neural Unit.wav
     Peak level 97.9 %
     Extraction speed 8.5 X
     Range quality 100.0 %
     Test CRC 3B41DD9B
     Copy CRC 3B41DD9B
     Copy OK
No errors occurred
AccurateRip summary
Track  1  accurately ripped (confidence 1)  [B8ABE1D9]  (AR v1)
Track  2  accurately ripped (confidence 1)  [E21EBB2B]  (AR v1)
Track  3  accurately ripped (confidence 1)  [6FACBF0E]  (AR v1)
Track  4  accurately ripped (confidence 1)  [3257F57D]  (AR v1)
Track  5  accurately ripped (confidence 1)  [BFDD6366]  (AR v1)
Track  6  accurately ripped (confidence 1)  [894728C8]  (AR v1)
Track  7  accurately ripped (confidence 1)  [8050DA92]  (AR v1)
Track  8  accurately ripped (confidence 1)  [CE5EABF5]  (AR v1)
Track  9  accurately ripped (confidence 1)  [5FD9F886]  (AR v1)
Track 10  accurately ripped (confidence 1)  [2FF99C69]  (AR v1)
Track 11  accurately ripped (confidence 1)  [3AA9906E]  (AR v1)
Track 12  accurately ripped (confidence 1)  [646DC6B3]  (AR v1)
Track 13  accurately ripped (confidence 1)  [B84B161B]  (AR v1)
Track 14  accurately ripped (confidence 1)  [F66C07A2]  (AR v1)
Track 15  accurately ripped (confidence 1)  [80633AF0]  (AR v1)
Track 16  not present in database
Track 17  not present in database
Track 18  not present in database
Track 19  not present in database
Track 20  not present in database
Track 21  not present in database
Track 22  not present in database
Track 23  not present in database
Track 24  not present in database
Track 25  not present in database
Track 26  not present in database
Track 27  not present in database
Track 28  not present in database
Track 29  not present in database
Track 30  not present in database
Track 31  not present in database
Track 32  not present in database
Track 33  not present in database
Track 34  not present in database
Track 35  not present in database
Track 36  not present in database
Track 37  not present in database
Track 38  not present in database
Track 39  not present in database
Track 40  not present in database
Track 41  not present in database
Track 42  not present in database
Track 43  not present in database
Track 44  not present in database
Track 45  not present in database
Track 46  not present in database
Track 47  not present in database
Track 48  not present in database
Track 49  not present in database
Track 50  not present in database
Track 51  not present in database
Track 52  not present in database
Track 53  not present in database
Track 54  not present in database
Track 55  not present in database
Track 56  not present in database
Track 57  not present in database
Track 58  not present in database
Track 59  not present in database
Track 60  accurately ripped (confidence 1)  [83A8A9D3]  (AR v1)
16 трек(и) скопированы точно
44 трек(и) не содержатся в базе AccurateRip
Some tracks could not be verified as accurate
End of status report
==== Log checksum 021BC5208137658ADBAD3B099995EE358A4AAF88B37631C50655BA1DFBCF42BB ====
Правила, инструкции, FAQ!!!
Торрент  Добавлен [26 июн 2020, 16:55] Скачать торрент Магнет ссылка
Скачать торрент
[ Размер 18.52 КБ / Просмотров 4 ]

Статус
Проверен 
 
Размер  451.76 МБ
Приватный: Нет (DHT включён)
.torrent скачан  0
 


     Отправить личное сообщение
   
Страница 1 из 1
Показать сообщения за:  Поле сортировки  
Начать новую тему Ответить на тему


Сейчас этот форум просматривают: нет зарегистрированных пользователей и гости: 0


Вы не можете начинать темы
Вы не можете отвечать на сообщения
Вы не можете редактировать свои сообщения
Вы не можете удалять свои сообщения
Вы не можете добавлять вложения

Перейти:  
cron