Начать новую тему Ответить на тему
Статистика раздачи
Размер: 475.28 МБ | Добавлен: 26 июн 2020, 16:54 | Скачали: 0
Сидеров: 0  [0 байт/сек]    Личеров: 0  [0 байт/сек]
Пред. тема | След. тема 

Автор
Сообщение

СообщениеДобавлено: 26 июн 2020, 16:54 

Ответить с цитатой 

Battery Cage - World Wide Wasteland
Жанр: EBM industrial
Год выпуска диска: 2004
Производитель диска: (Metropolis Records, USA)
Аудио кодек: FLAC
Тип рипа: image+.cue
Битрейт аудио: lossless
Продолжительность: 1:04:42.07
Трэклист:
1. Anti/Angel [05:57.62]
2. Wasteland [05:30.55]
3. Ecstasy [06:08.64]
4. Mirror Image Enemy [05:15.26]
5. Statemachine [05:28.43]
6. Caged [06:13.06]
7. Hater [03:19.37]
8. Frozen [06:11.02]
9. Deadmorning [08:09.07]
10. Ecstasy (Headscan rmx) [06:05.66]
11. Statemachine (Stromkern rmx) [06:22.14]
Код:
Exact Audio Copy V0.99 prebeta 4 from 23. January 2008
Отчёт EAC об извлечении, выполненном 3. апреля 2009, 10:14
Battery Cage / World Wide Wasteland
Дисковод: Optiarc DVD RW AD-7170A   Adapter: 0  ID: 0
Режим чтения                 : Достоверность
Использование точного потока : Да
Отключение кэша аудио        : Да
Использование указателей C2  : Нет
Коррекция смещения при чтении                     : 48
Способность читать области Lead-in и Lead-out     : Нет
Заполнение пропущенных сэмплов тишиной            : Да
Удаление блоков с тишиной в начале и конце        : Нет
При вычислениях CRC использовались нулевые сэмплы : Да
Интерфейс                                         : Встроенный Win32-интерфейс для Win NT/2000
Выходной формат          : Пользовательский кодировщик
Выбранный битрейт        : 1024 kBit/s
Качество                 : Высокий
Добавление ID3-тэга      : Нет
Утилита сжатия           : C:\Program Files\Exact Audio Copy\FLAC\FLAC.EXE
Дополнительные параметры : -6 -V -T "ARTIST=%a" -T "TITLE=%t" -T "ALBUM=%g" -T "DATE=%y" -T "TRACKNUMBER=%n" -T "GENRE=%m" -T "COMMENT=%e" %s -o %d
TOC извлечённого CD
     Трек |   Старт  | Длительность | Начальный сектор | Конечный сектор
    ---------------------------------------------------------------------
       1  |  0:00.00 |    5:57.62   |           0      |      26836
       2  |  5:57.62 |    5:30.55   |       26837      |      51641
       3  | 11:28.42 |    6:08.64   |       51642      |      79305
       4  | 17:37.31 |    5:15.26   |       79306      |     102956
       5  | 22:52.57 |    5:28.43   |      102957      |     127599
       6  | 28:21.25 |    6:13.06   |      127600      |     155580
       7  | 34:34.31 |    3:19.37   |      155581      |     170542
       8  | 37:53.68 |    6:11.02   |      170543      |     198369
       9  | 44:04.70 |    8:09.07   |      198370      |     235051
      10  | 52:14.02 |    6:05.66   |      235052      |     262492
      11  | 58:19.68 |    6:22.14   |      262493      |     291156
Характеристики диапазона извлечения и сообщения об ошибках
Выбранный диапазон
     Имя файла D:\Мои документы\Battery Cage - World Wide Wasteland.wav
     Пиковый уровень 97.7 %
     Качество диапазона 99.9 %
     CRC теста C481DAD6
     CRC копии C481DAD6
     Копирование... OK
Ошибок не произошло
Конец отчёта
Правила, инструкции, FAQ!!!
Торрент  Добавлен [26 июн 2020, 16:54] Скачать торрент Магнет ссылка
Скачать торрент
[ Размер 19.47 КБ / Просмотров 5 ]

Статус
Проверен 
 
Размер  475.28 МБ
Приватный: Нет (DHT включён)
.torrent скачан  0
 


     Отправить личное сообщение
   
Страница 1 из 1
Показать сообщения за:  Поле сортировки  
Начать новую тему Ответить на тему


Сейчас этот форум просматривают: нет зарегистрированных пользователей и гости: 0


Вы не можете начинать темы
Вы не можете отвечать на сообщения
Вы не можете редактировать свои сообщения
Вы не можете удалять свои сообщения
Вы не можете добавлять вложения

Перейти:  
cron