Начать новую тему Ответить на тему
Статистика раздачи
Размер: 498.32 МБ | Добавлен: 26 июн 2020, 17:04 | Скачали: 0
Сидеров: 0  [0 байт/сек]    Личеров: 0  [0 байт/сек]
Пред. тема | След. тема 

Автор
Сообщение

СообщениеДобавлено: 26 июн 2020, 17:04 

Ответить с цитатой 

Battery Cage - Product
Жанр: EBM industrial
Год выпуска диска: 1998
Производитель диска: (SolidGreySky Studio, Canada)
Аудио кодек: FLAC
Тип рипа: image+.cue
Битрейт аудио: lossless
Продолжительность: 69:38.57
Трэклист:
01. Sworn [5:25]
02. Disengage [5:05]
03. Gone Postal [4:59]
04. Blunt Force Trauma [4:59]
05. Penalized [5:05]
06. Static [4:42]
07. Caged [5:47]
08. Finished [5:52]
09. Replicant [5:07]
10. Epidemic [4:22]
11. Blunt Force Trauma (Informatik Mindlock remix) [5:18]
12. Killfile [12:47]
13. Product [0:11]
Код:
Exact Audio Copy V0.99 prebeta 4 from 23. January 2008
Отчёт EAC об извлечении, выполненном 14. октября 2009, 9:26
Battery Cage / Product
Дисковод: Optiarc DVD RW AD-7173A   Adapter: 0  ID: 0
Режим чтения                 : Достоверность
Использование точного потока : Да
Отключение кэша аудио        : Да
Использование указателей C2  : Нет
Коррекция смещения при чтении                     : 48
Способность читать области Lead-in и Lead-out     : Нет
Заполнение пропущенных сэмплов тишиной            : Да
Удаление блоков с тишиной в начале и конце        : Нет
При вычислениях CRC использовались нулевые сэмплы : Да
Интерфейс                                         : Встроенный Win32-интерфейс для Win NT/2000
Выходной формат          : Пользовательский кодировщик
Выбранный битрейт        : 1024 kBit/s
Качество                 : Высокий
Добавление ID3-тэга      : Нет
Утилита сжатия           : C:\Program Files\Exact Audio Copy\Flac\flac.exe
Дополнительные параметры : -6 -V -T "ARTIST=%a" -T "TITLE=%t" -T "ALBUM=%g" -T "DATE=%y" -T "TRACKNUMBER=%n" -T "GENRE=%m" -T "COMMENT=%e" %s -o %d
TOC извлечённого CD
     Трек |   Старт  | Длительность | Начальный сектор | Конечный сектор
    ---------------------------------------------------------------------
       1  |  0:00.00 |    5:25.37   |           0      |      24411
       2  |  5:25.37 |    5:04.43   |       24412      |      47254
       3  | 10:30.05 |    4:58.44   |       47255      |      69648
       4  | 15:28.49 |    4:59.12   |       69649      |      92085
       5  | 20:27.61 |    5:05.13   |       92086      |     114973
       6  | 25:32.74 |    4:42.17   |      114974      |     136140
       7  | 30:15.16 |    5:46.60   |      136141      |     162150
       8  | 36:02.01 |    5:51.38   |      162151      |     188513
       9  | 41:53.39 |    5:07.04   |      188514      |     211542
      10  | 47:00.43 |    4:22.17   |      211543      |     231209
      11  | 51:22.60 |    5:18.29   |      231210      |     255088
      12  | 56:41.14 |   12:46.41   |      255089      |     312579
      13  | 69:27.55 |    0:11.02   |      312580      |     313406
Характеристики диапазона извлечения и сообщения об ошибках
Выбранный диапазон
     Имя файла H:\СКАЧКА\FLAC\Battery Cage - Product.wav
     Пиковый уровень 97.7 %
     Качество диапазона 99.9 %
     CRC теста 6EBF9A9C
     CRC копии 6EBF9A9C
     Копирование... OK
Ошибок не произошло
AccurateRip: сводка
Трек  1  нет в базе данных
Трек  2  нет в базе данных
Трек  3  нет в базе данных
Трек  4  нет в базе данных
Трек  5  нет в базе данных
Трек  6  нет в базе данных
Трек  7  нет в базе данных
Трек  8  нет в базе данных
Трек  9  нет в базе данных
Трек 10  нет в базе данных
Трек 11  нет в базе данных
Трек 12  нет в базе данных
Трек 13  нет в базе данных
Ни одного трека нет в базе AccurateRip
Конец отчёта
Хочешь скачать, но не можешь из-за отсутствия сидов - пиши в личку!
Правила, инструкции, FAQ!!!
Торрент  Добавлен [26 июн 2020, 17:04] Скачать торрент Магнет ссылка
Скачать торрент
[ Размер 20.36 КБ / Просмотров 11 ]

Статус
Проверен 
 
Размер  498.32 МБ
Приватный: Нет (DHT включён)
.torrent скачан  0
 


     Отправить личное сообщение
   
Страница 1 из 1
Показать сообщения за:  Поле сортировки  
Начать новую тему Ответить на тему


Сейчас этот форум просматривают: нет зарегистрированных пользователей и гости: 0


Вы не можете начинать темы
Вы не можете отвечать на сообщения
Вы не можете редактировать свои сообщения
Вы не можете удалять свои сообщения
Вы не можете добавлять вложения

Перейти:  
cron