Начать новую тему Ответить на тему
Статистика раздачи
Размер: 313.19 МБ | Добавлен: 26 июн 2020, 21:09 | Скачали: 0
Сидеров: 0  [0 байт/сек]    Личеров: 0  [0 байт/сек]
Пред. тема | След. тема 

Автор
Сообщение

СообщениеДобавлено: 26 июн 2020, 21:09 

Ответить с цитатой 

Audio Paradox - The Iniquity of Time
Жанр: EBM, Industrial
Носитель: CD
Страна-производитель диска: Canada
Год издания: 1999
Издатель (лейбл): Flaming Fish Music
Номер по каталогу: FFMCD022
Страна: Canada
Аудиокодек: FLAC (*.flac)
Тип рипа: tracks+.cue
Битрейт аудио: lossless
Продолжительность: 00:42:22
Источник (релизер): Rekhyt
Наличие сканов в содержимом раздачи: нет
Треклист:
1. Time to Burn (5:10)
2. Collision (4:03)
3. Parasitic (4:45)
4. Transgression (5:38)
5. Grace One (4:11)
6. Underlines (4:44)
7. Cached Influx (4:32)
8. Threshold (3:48)
9. Ageless (5:31)
10. Parasitic (Fistful of Spaghetti Mix) (3:14)
Код:
Exact Audio Copy V1.0 beta 3 from 29. August 2011
EAC extraction logfile from 16. December 2013, 12:55
Audio Paradox / The Iniquity of Time
Used drive  : ATAPI   iHAS424   B   Adapter: 0  ID: 0
Read mode               : Secure
Utilize accurate stream : Yes
Defeat audio cache      : Yes
Make use of C2 pointers : No
Read offset correction                      : 6
Overread into Lead-In and Lead-Out          : No
Fill up missing offset samples with silence : Yes
Delete leading and trailing silent blocks   : No
Null samples used in CRC calculations       : Yes
Used interface                              : Native Win32 interface for Win NT & 2000
Gap handling                                : Appended to previous track
Used output format              : User Defined Encoder
Selected bitrate                : 1024 kBit/s
Quality                         : High
Add ID3 tag                     : No
Command line compressor         : C:\Program Files (x86)\Exact Audio Copy\Flac\flac.exe
Additional command line options : -8 -V -T "ARTIST=%artist%" -T "TITLE=%title%" -T "ALBUM=%albumtitle%" -T "DATE=%year%" -T "TRACKNUMBER=%tracknr1%" -T "TOTALTRACKS=%numtracks%" -T "COMMENT=%comment%" %source% -o %dest%
TOC of the extracted CD
     Track |   Start  |  Length  | Start sector | End sector
    ---------------------------------------------------------
        1  |  0:00.02 |  5:09.52 |         2    |    23228
        2  |  5:09.54 |  4:02.60 |     23229    |    41438
        3  |  9:12.39 |  4:45.35 |     41439    |    62848
        4  | 13:57.74 |  5:38.27 |     62849    |    88225
        5  | 19:36.26 |  4:10.59 |     88226    |   107034
        6  | 23:47.10 |  4:43.67 |    107035    |   128326
        7  | 28:31.02 |  4:31.51 |    128327    |   148702
        8  | 33:02.53 |  3:48.14 |    148703    |   165816
        9  | 36:50.67 |  5:30.65 |    165817    |   190631
       10  | 42:21.57 |  3:13.55 |    190632    |   205161
Track  1
     Filename D:\Downloads\Audio Paradox\Audio Paradox - The Iniquity of Time (1999) - FLAC\01. Audio Paradox - Time to Burn.wav
     Pre-gap length  0:00:02.02
     Peak level 100.0 %
     Extraction speed 1.9 X
     Track quality 100.0 %
     Test CRC 91339043
     Copy CRC 91339043
     Track not present in AccurateRip database
     Copy OK
Track  2
     Filename D:\Downloads\Audio Paradox\Audio Paradox - The Iniquity of Time (1999) - FLAC\02. Audio Paradox - Collision.wav
     Peak level 100.0 %
     Extraction speed 2.1 X
     Track quality 100.0 %
     Test CRC 06A0DC19
     Copy CRC 06A0DC19
     Track not present in AccurateRip database
     Copy OK
Track  3
     Filename D:\Downloads\Audio Paradox\Audio Paradox - The Iniquity of Time (1999) - FLAC\03. Audio Paradox - Parasitic.wav
     Peak level 100.0 %
     Extraction speed 2.4 X
     Track quality 100.0 %
     Test CRC 2FD6D4DD
     Copy CRC 2FD6D4DD
     Track not present in AccurateRip database
     Copy OK
Track  4
     Filename D:\Downloads\Audio Paradox\Audio Paradox - The Iniquity of Time (1999) - FLAC\04. Audio Paradox - Transgression.wav
     Peak level 100.0 %
     Extraction speed 2.6 X
     Track quality 100.0 %
     Test CRC 102CF7B0
     Copy CRC 102CF7B0
     Track not present in AccurateRip database
     Copy OK
Track  5
     Filename D:\Downloads\Audio Paradox\Audio Paradox - The Iniquity of Time (1999) - FLAC\05. Audio Paradox - Grace One.wav
     Peak level 100.0 %
     Extraction speed 2.7 X
     Track quality 100.0 %
     Test CRC 93F40A1B
     Copy CRC 93F40A1B
     Track not present in AccurateRip database
     Copy OK
Track  6
     Filename D:\Downloads\Audio Paradox\Audio Paradox - The Iniquity of Time (1999) - FLAC\06. Audio Paradox - Underlines.wav
     Peak level 67.9 %
     Extraction speed 2.9 X
     Track quality 100.0 %
     Test CRC B4DAB7A4
     Copy CRC B4DAB7A4
     Track not present in AccurateRip database
     Copy OK
Track  7
     Filename D:\Downloads\Audio Paradox\Audio Paradox - The Iniquity of Time (1999) - FLAC\07. Audio Paradox - Cached Influx.wav
     Peak level 100.0 %
     Extraction speed 3.0 X
     Track quality 100.0 %
     Test CRC 6B81FBB0
     Copy CRC 6B81FBB0
     Track not present in AccurateRip database
     Copy OK
Track  8
     Filename D:\Downloads\Audio Paradox\Audio Paradox - The Iniquity of Time (1999) - FLAC\08. Audio Paradox - Threshold.wav
     Peak level 75.4 %
     Extraction speed 3.1 X
     Track quality 100.0 %
     Test CRC CF0B3187
     Copy CRC CF0B3187
     Track not present in AccurateRip database
     Copy OK
Track  9
     Filename D:\Downloads\Audio Paradox\Audio Paradox - The Iniquity of Time (1999) - FLAC\09. Audio Paradox - Ageless.wav
     Peak level 100.0 %
     Extraction speed 3.4 X
     Track quality 100.0 %
     Test CRC 3299A7FE
     Copy CRC 3299A7FE
     Track not present in AccurateRip database
     Copy OK
Track 10
     Filename D:\Downloads\Audio Paradox\Audio Paradox - The Iniquity of Time (1999) - FLAC\10. Audio Paradox - Parasitic (Fistful of Spaghetti Mix).wav
     Peak level 100.0 %
     Extraction speed 3.2 X
     Track quality 100.0 %
     Test CRC 92A87541
     Copy CRC 92A87541
     Track not present in AccurateRip database
     Copy OK
None of the tracks are present in the AccurateRip database
No errors occurred
End of status report
==== Log checksum 57590FADE6F8F7FD6F494B39F6D1B82FCC33F69E34516012A336EA5748DC2E85 ====
Код:
REM DATE 1999
REM DISCID 810AAF0A
REM COMMENT "ExactAudioCopy v1.0b3"
PERFORMER "Audio Paradox"
TITLE "The Iniquity of Time"
FILE "01. Audio Paradox - Time to Burn.wav" WAVE
  TRACK 01 AUDIO
    TITLE "Time to Burn"
    PERFORMER "Audio Paradox"
    PREGAP 00:00:02
    INDEX 01 00:00:00
FILE "02. Audio Paradox - Collision.wav" WAVE
  TRACK 02 AUDIO
    TITLE "Collision"
    PERFORMER "Audio Paradox"
    INDEX 01 00:00:00
FILE "03. Audio Paradox - Parasitic.wav" WAVE
  TRACK 03 AUDIO
    TITLE "Parasitic"
    PERFORMER "Audio Paradox"
    INDEX 01 00:00:00
FILE "04. Audio Paradox - Transgression.wav" WAVE
  TRACK 04 AUDIO
    TITLE "Transgression"
    PERFORMER "Audio Paradox"
    INDEX 01 00:00:00
FILE "05. Audio Paradox - Grace One.wav" WAVE
  TRACK 05 AUDIO
    TITLE "Grace One"
    PERFORMER "Audio Paradox"
    INDEX 01 00:00:00
FILE "06. Audio Paradox - Underlines.wav" WAVE
  TRACK 06 AUDIO
    TITLE "Underlines"
    PERFORMER "Audio Paradox"
    INDEX 01 00:00:00
FILE "07. Audio Paradox - Cached Influx.wav" WAVE
  TRACK 07 AUDIO
    TITLE "Cached Influx"
    PERFORMER "Audio Paradox"
    INDEX 01 00:00:00
FILE "08. Audio Paradox - Threshold.wav" WAVE
  TRACK 08 AUDIO
    TITLE "Threshold"
    PERFORMER "Audio Paradox"
    INDEX 01 00:00:00
FILE "09. Audio Paradox - Ageless.wav" WAVE
  TRACK 09 AUDIO
    TITLE "Ageless"
    PERFORMER "Audio Paradox"
    INDEX 01 00:00:00
FILE "10. Audio Paradox - Parasitic (Fistful of Spaghetti Mix).wav" WAVE
  TRACK 10 AUDIO
    TITLE "Parasitic (Fistful of Spaghetti Mix)"
    PERFORMER "Audio Paradox"
    INDEX 01 00:00:00
http://www.discogs.com/Audio-Paradox-The-Iniquity-Of-Time/release/283861 (manually put in URL / вручную положить в URL)
Правила, инструкции, FAQ!!!
Торрент  Добавлен [26 июн 2020, 21:09] Скачать торрент Магнет ссылка
Скачать торрент
[ Размер 25.84 КБ / Просмотров 10 ]

Статус
Проверен 
 
Размер  313.19 МБ
Приватный: Нет (DHT включён)
.torrent скачан  0
 


     Отправить личное сообщение
   
Страница 1 из 1
Показать сообщения за:  Поле сортировки  
Начать новую тему Ответить на тему


Сейчас этот форум просматривают: нет зарегистрированных пользователей и гости: 0


Вы не можете начинать темы
Вы не можете отвечать на сообщения
Вы не можете редактировать свои сообщения
Вы не можете удалять свои сообщения
Вы не можете добавлять вложения

Перейти:  
cron