Начать новую тему Ответить на тему
Статистика раздачи
Размер: 200.55 МБ | Добавлен: 26 июн 2020, 16:52 | Скачали: 0
Сидеров: 0  [0 байт/сек]    Личеров: 0  [0 байт/сек]
Пред. тема | След. тема 

Автор
Сообщение

СообщениеДобавлено: 26 июн 2020, 16:52 

Ответить с цитатой 

Audio Paradox - Infinitesimal
Жанр: EBM, Industrial
Носитель: CD
Год издания: 2001
Издатель (лейбл): NONE
Номер по каталогу: NONE
Страна: U.S.
Аудиокодек: FLAC (*.flac)
Тип рипа: image+.cue
Битрейт аудио: lossless
Продолжительность: 00:36:32
Источник (релизер): Rekhyt
Наличие сканов в содержимом раздачи: нет
Треклист:
1. Division of Vision (5:15)
2. Consumed (4:14)
3. Controller (6:05)
4. T'Shuvah (7:48)
5. Human Decay (3:05)
6. Reason (4:45)
7. Mirror (5:20)
Код:
Exact Audio Copy V1.0 beta 3 from 29. August 2011
EAC extraction logfile from 23. October 2012, 13:14
Audio Paradox / Infinitesimal
Used drive  : ATAPI   iHAS424   B   Adapter: 3  ID: 0
Read mode               : Secure
Utilize accurate stream : Yes
Defeat audio cache      : Yes
Make use of C2 pointers : No
Read offset correction                      : 6
Overread into Lead-In and Lead-Out          : No
Fill up missing offset samples with silence : Yes
Delete leading and trailing silent blocks   : No
Null samples used in CRC calculations       : Yes
Used interface                              : Native Win32 interface for Win NT & 2000
Used output format              : User Defined Encoder
Selected bitrate                : 1024 kBit/s
Quality                         : High
Add ID3 tag                     : No
Command line compressor         : C:\Program Files (x86)\Exact Audio Copy\FLAC\FLAC.EXE
Additional command line options : -V -8 -T "Date=%year%" -T "Genre=%genre%" %source%
TOC of the extracted CD
     Track |   Start  |  Length  | Start sector | End sector
    ---------------------------------------------------------
        1  |  0:00.00 |  5:14.39 |         0    |    23588
        2  |  5:14.39 |  4:14.28 |     23589    |    42666
        3  |  9:28.67 |  6:05.36 |     42667    |    70077
        4  | 15:34.28 |  7:48.35 |     70078    |   105212
        5  | 23:22.63 |  3:04.53 |    105213    |   119065
        6  | 26:27.41 |  4:45.24 |    119066    |   140464
        7  | 31:12.65 |  5:20.03 |    140465    |   164467
Range status and errors
Selected range
     Filename E:\Downloads\Audio Paradox\Audio Paradox - Infinitesimal\Audio Paradox - Infinitesimal.wav
     Peak level 100.0 %
     Extraction speed 4.2 X
     Range quality 100.0 %
     Test CRC 967C4CA4
     Copy CRC 967C4CA4
     Copy OK
No errors occurred
AccurateRip summary
Track  1  not present in database
Track  2  not present in database
Track  3  not present in database
Track  4  not present in database
Track  5  not present in database
Track  6  not present in database
Track  7  not present in database
None of the tracks are present in the AccurateRip database
End of status report
==== Log checksum 038B7E8F103D6FD7C47998E92CEA0EF4F20B94D30EE6D0348BA9696CF21815B3 ====
Код:
REM DATE 2001
REM DISCID 5E089007
REM COMMENT ExactAudioCopy v1.0b3
PERFORMER "Audio Paradox"
TITLE "Infinitesimal"
FILE "Audio Paradox - Infinitesimal.flac" WAVE
  TRACK 01 AUDIO
    TITLE "Division of Vision"
    INDEX 01 00:00:00
  TRACK 02 AUDIO
    TITLE "Consumed"
    INDEX 00 05:13:37
    INDEX 01 05:14:39
  TRACK 03 AUDIO
    TITLE "Controller"
    INDEX 00 09:25:63
    INDEX 01 09:28:67
  TRACK 04 AUDIO
    TITLE "T'Shuvah"
    INDEX 00 15:24:17
    INDEX 01 15:34:28
  TRACK 05 AUDIO
    TITLE "Human Decay"
    INDEX 00 23:19:59
    INDEX 01 23:22:63
  TRACK 06 AUDIO
    TITLE "Reason"
    INDEX 00 26:26:39
    INDEX 01 26:27:41
  TRACK 07 AUDIO
    TITLE "Mirror"
    INDEX 00 31:03:55
    INDEX 01 31:12:65
Код:
AUDIOCHECKER v2.0 beta (build 457) - by Dester - opdester@freemail.hu
~~~~~~~~~~~~~~~~~~~~~~~~~~~~~~~~~~
-=== DO NOT EDIT THIS FILE! ===-
Path: ...\Audio Paradox - Infinitesimal
1 -=- Audio Paradox - Infinitesimal.flac -=- CDDA (100%)
39105396
Правила, инструкции, FAQ!!!
Торрент  Добавлен [26 июн 2020, 16:52] Скачать торрент Магнет ссылка
Скачать торрент
[ Размер 16.35 КБ / Просмотров 5 ]

Статус
Проверен 
 
Размер  200.55 МБ
Приватный: Нет (DHT включён)
.torrent скачан  0
 


     Отправить личное сообщение
   
Страница 1 из 1
Показать сообщения за:  Поле сортировки  
Начать новую тему Ответить на тему


Сейчас этот форум просматривают: нет зарегистрированных пользователей и гости: 0


Вы не можете начинать темы
Вы не можете отвечать на сообщения
Вы не можете редактировать свои сообщения
Вы не можете удалять свои сообщения
Вы не можете добавлять вложения

Перейти:  
cron