Начать новую тему Ответить на тему
Статистика раздачи
Размер: 1.1 ГБ | Добавлен: 26 июн 2020, 17:08 | Скачали: 0
Сидеров: 0  [0 байт/сек]    Личеров: 0  [0 байт/сек]
Пред. тема | След. тема 

Автор
Сообщение

СообщениеДобавлено: 26 июн 2020, 17:08 

Ответить с цитатой 

Asseptic Room / 2 Albums
Жанр: EBM, Industrial
Страна-производитель диска: US, Hungary
Год издания диска: 2006-2011
Издатель (лейбл): DSBP, Advoxya
Номер по каталогу: DSBP #1076, ad-hun-43-cd
Страна: Spain
Аудио кодек: FLAC (*.flac)
Тип рипа: tracks+.cue
Битрейт аудио: lossless
Продолжительность: 142:23
Источник (релизер): Рип с личных CD
Наличие сканов в содержимом раздачи: да
Доп. информация: http://www.discogs.com/artist/Asseptic+Room
http://www.assepticroom.com/
http://www.myspace.com/assepticroom
Asseptic Room is the solo project of Carlos Ruiz, which he began in 2002 whilst still a member of Dioxyde. In 2004, he left the band to focus on Asseptic Room.
Carlos Ruiz
#777Треклист:
1 From Hell! 4:59
2 Gates Of Death 5:16
3 Ansia 3:53
4 Morbid Visions 5:24
5 Faith Without You 3:55
6 Death In The Skies 5:09
7 Falling Angel 5:02
8 Crazy 4:27
9 Traumatic System 5:31
10 Sumision 6:56
11 Bones Of Angels 3:48
12 Domination 7:50
13 Brutal Ira 4:55
14 Home Without God 6:03
Код:
Exact Audio Copy V0.99 prebeta 5 from 4. May 2009
EAC extraction logfile from 2. November 2010, 19:27
Asseptic Room / Morbid Visions
Used drive  : PIONEER DVD-RW  DVR-216D   Adapter: 0  ID: 0
Read mode               : Secure
Utilize accurate stream : Yes
Defeat audio cache      : Yes
Make use of C2 pointers : No
Read offset correction                      : 96
Overread into Lead-In and Lead-Out          : No
Fill up missing offset samples with silence : Yes
Delete leading and trailing silent blocks   : No
Null samples used in CRC calculations       : Yes
Used interface                              : Native Win32 interface for Win NT & 2000
Gap handling                                : Appended to previous track
Used output format              : User Defined Encoder
Selected bitrate                : 1024 kBit/s
Quality                         : High
Add ID3 tag                     : No
Command line compressor         : C:\Program Files (x86)\Exact Audio Copy\Flac\flac.exe
Additional command line options : -8 -V -T "ARTIST=%a" -T "TITLE=%t" -T "ALBUM=%g" -T "DATE=%y" -T "TRACKNUMBER=%n" -T "GENRE=%m" -T "COMMENT=EAC FLAC -8" %s
TOC of the extracted CD
     Track |   Start  |  Length  | Start sector | End sector
    ---------------------------------------------------------
        1  |  0:00.00 |  4:59.58 |         0    |    22482
        2  |  4:59.58 |  5:16.30 |     22483    |    46212
        3  | 10:16.13 |  3:53.70 |     46213    |    63757
        4  | 14:10.08 |  5:24.29 |     63758    |    88086
        5  | 19:34.37 |  3:55.73 |     88087    |   105784
        6  | 23:30.35 |  5:09.59 |    105785    |   129018
        7  | 28:40.19 |  5:02.42 |    129019    |   151710
        8  | 33:42.61 |  4:27.34 |    151711    |   171769
        9  | 38:10.20 |  5:31.72 |    171770    |   196666
       10  | 43:42.17 |  6:56.68 |    196667    |   227934
       11  | 50:39.10 |  3:48.27 |    227935    |   245061
       12  | 54:27.37 |  7:50.65 |    245062    |   280376
       13  | 62:18.27 |  4:55.59 |    280377    |   302560
       14  | 67:14.11 |  6:03.18 |    302561    |   329803
Track  1
     Filename I:\Audio\TORRENTS\Asseptic Room - Morbid Visions\Tracks\ 01. Asseptic Room – From Hell.wav
     Pre-gap length  0:00:02.00
     Peak level 97.7 %
     Track quality 100.0 %
     Test CRC A6D3EBDC
     Copy CRC A6D3EBDC
     Track not present in AccurateRip database
     Copy OK
Track  2
     Filename I:\Audio\TORRENTS\Asseptic Room - Morbid Visions\Tracks\ 02. Asseptic Room – Gates Of Death.wav
     Pre-gap length  0:00:02.00
     Peak level 97.7 %
     Track quality 100.0 %
     Test CRC DB781EF8
     Copy CRC DB781EF8
     Track not present in AccurateRip database
     Copy OK
Track  3
     Filename I:\Audio\TORRENTS\Asseptic Room - Morbid Visions\Tracks\ 03. Asseptic Room – Ansia.wav
     Pre-gap length  0:00:02.00
     Peak level 97.7 %
     Track quality 100.0 %
     Test CRC E2B86A29
     Copy CRC E2B86A29
     Track not present in AccurateRip database
     Copy OK
Track  4
     Filename I:\Audio\TORRENTS\Asseptic Room - Morbid Visions\Tracks\ 04. Asseptic Room – Morbid Visions.wav
     Pre-gap length  0:00:02.00
     Peak level 97.7 %
     Track quality 100.0 %
     Test CRC F8D2E733
     Copy CRC F8D2E733
     Track not present in AccurateRip database
     Copy OK
Track  5
     Filename I:\Audio\TORRENTS\Asseptic Room - Morbid Visions\Tracks\ 05. Asseptic Room – Faith Without You.wav
     Pre-gap length  0:00:02.00
     Peak level 97.7 %
     Track quality 100.0 %
     Test CRC E09665FF
     Copy CRC E09665FF
     Track not present in AccurateRip database
     Copy OK
Track  6
     Filename I:\Audio\TORRENTS\Asseptic Room - Morbid Visions\Tracks\ 06. Asseptic Room – Death In The skies.wav
     Pre-gap length  0:00:02.00
     Peak level 97.7 %
     Track quality 99.9 %
     Test CRC 9FD80C02
     Copy CRC 9FD80C02
     Track not present in AccurateRip database
     Copy OK
Track  7
     Filename I:\Audio\TORRENTS\Asseptic Room - Morbid Visions\Tracks\ 07. Asseptic Room – Falling Angel.wav
     Pre-gap length  0:00:02.00
     Peak level 97.7 %
     Track quality 100.0 %
     Test CRC 7BC80667
     Copy CRC 7BC80667
     Track not present in AccurateRip database
     Copy OK
Track  8
     Filename I:\Audio\TORRENTS\Asseptic Room - Morbid Visions\Tracks\ 08. Asseptic Room – Crazy.wav
     Pre-gap length  0:00:02.00
     Peak level 97.7 %
     Track quality 100.0 %
     Test CRC A6CDE829
     Copy CRC A6CDE829
     Track not present in AccurateRip database
     Copy OK
Track  9
     Filename I:\Audio\TORRENTS\Asseptic Room - Morbid Visions\Tracks\ 09. Asseptic Room – Traumatic System.wav
     Pre-gap length  0:00:02.00
     Peak level 96.6 %
     Track quality 100.0 %
     Test CRC 7843A2DE
     Copy CRC 7843A2DE
     Track not present in AccurateRip database
     Copy OK
Track 10
     Filename I:\Audio\TORRENTS\Asseptic Room - Morbid Visions\Tracks\ 10. Asseptic Room – Sumision.wav
     Pre-gap length  0:00:02.00
     Peak level 97.7 %
     Track quality 100.0 %
     Test CRC 36AE3A2C
     Copy CRC 36AE3A2C
     Track not present in AccurateRip database
     Copy OK
Track 11
     Filename I:\Audio\TORRENTS\Asseptic Room - Morbid Visions\Tracks\ 11. Asseptic Room – Bones of Angels.wav
     Pre-gap length  0:00:02.00
     Peak level 97.7 %
     Track quality 100.0 %
     Test CRC ED21C6FE
     Copy CRC ED21C6FE
     Track not present in AccurateRip database
     Copy OK
Track 12
     Filename I:\Audio\TORRENTS\Asseptic Room - Morbid Visions\Tracks\ 12. Asseptic Room – Domination.wav
     Pre-gap length  0:00:02.00
     Peak level 97.7 %
     Track quality 99.9 %
     Test CRC DB33549A
     Copy CRC DB33549A
     Track not present in AccurateRip database
     Copy OK
Track 13
     Filename I:\Audio\TORRENTS\Asseptic Room - Morbid Visions\Tracks\ 13. Asseptic Room – Brutal Ire.wav
     Pre-gap length  0:00:02.00
     Peak level 96.6 %
     Track quality 100.0 %
     Test CRC F6E9DEBA
     Copy CRC F6E9DEBA
     Track not present in AccurateRip database
     Copy OK
Track 14
     Filename I:\Audio\TORRENTS\Asseptic Room - Morbid Visions\Tracks\ 14. Asseptic Room – Home Without God.wav
     Pre-gap length  0:00:02.00
     Peak level 97.7 %
     Track quality 100.0 %
     Test CRC 1344AF7B
     Copy CRC 1344AF7B
     Track not present in AccurateRip database
     Copy OK
None of the tracks are present in the AccurateRip database
No errors occurred
End of status report
Код:
REM GENRE Techno-Industrial
REM DATE 2006
REM DISCID A3112D0E
REM COMMENT "ExactAudioCopy v0.99pb5"
PERFORMER "Asseptic Room"
TITLE "Morbid Visions"
FILE " 01. Asseptic Room – From Hell.wav" WAVE
  TRACK 01 AUDIO
    TITLE "From Hell"
    PERFORMER "Asseptic Room"
    INDEX 01 00:00:00
  TRACK 02 AUDIO
    TITLE "Gates Of Death"
    PERFORMER "Asseptic Room"
    INDEX 00 04:57:58
FILE " 02. Asseptic Room – Gates Of Death.wav" WAVE
    INDEX 01 00:00:00
  TRACK 03 AUDIO
    TITLE "Ansia"
    PERFORMER "Asseptic Room"
    INDEX 00 05:14:30
FILE " 03. Asseptic Room – Ansia.wav" WAVE
    INDEX 01 00:00:00
  TRACK 04 AUDIO
    TITLE "Morbid Visions"
    PERFORMER "Asseptic Room"
    INDEX 00 03:51:70
FILE " 04. Asseptic Room – Morbid Visions.wav" WAVE
    INDEX 01 00:00:00
  TRACK 05 AUDIO
    TITLE "Faith Without You"
    PERFORMER "Asseptic Room"
    INDEX 00 05:22:29
FILE " 05. Asseptic Room – Faith Without You.wav" WAVE
    INDEX 01 00:00:00
  TRACK 06 AUDIO
    TITLE "Death In The skies"
    PERFORMER "Asseptic Room"
    INDEX 00 03:53:73
FILE " 06. Asseptic Room – Death In The skies.wav" WAVE
    INDEX 01 00:00:00
  TRACK 07 AUDIO
    TITLE "Falling Angel"
    PERFORMER "Asseptic Room"
    INDEX 00 05:07:59
FILE " 07. Asseptic Room – Falling Angel.wav" WAVE
    INDEX 01 00:00:00
  TRACK 08 AUDIO
    TITLE "Crazy"
    PERFORMER "Asseptic Room"
    INDEX 00 05:00:42
FILE " 08. Asseptic Room – Crazy.wav" WAVE
    INDEX 01 00:00:00
  TRACK 09 AUDIO
    TITLE "Traumatic System"
    PERFORMER "Asseptic Room"
    INDEX 00 04:25:34
FILE " 09. Asseptic Room – Traumatic System.wav" WAVE
    INDEX 01 00:00:00
  TRACK 10 AUDIO
    TITLE "Sumision"
    PERFORMER "Asseptic Room"
    INDEX 00 05:29:72
FILE " 10. Asseptic Room – Sumision.wav" WAVE
    INDEX 01 00:00:00
  TRACK 11 AUDIO
    TITLE "Bones of Angels"
    PERFORMER "Asseptic Room"
    INDEX 00 06:54:68
FILE " 11. Asseptic Room – Bones of Angels.wav" WAVE
    INDEX 01 00:00:00
  TRACK 12 AUDIO
    TITLE "Domination"
    PERFORMER "Asseptic Room"
    INDEX 00 03:46:27
FILE " 12. Asseptic Room – Domination.wav" WAVE
    INDEX 01 00:00:00
  TRACK 13 AUDIO
    TITLE "Brutal Ire"
    PERFORMER "Asseptic Room"
    INDEX 00 07:48:65
FILE " 13. Asseptic Room – Brutal Ire.wav" WAVE
    INDEX 01 00:00:00
  TRACK 14 AUDIO
    TITLE "Home Without God"
    PERFORMER "Asseptic Room"
    INDEX 00 04:53:59
FILE " 14. Asseptic Room – Home Without God.wav" WAVE
    INDEX 01 00:00:00
Код:
Started at: вторник, 02. 11. 2010. - 20:52.15
14 files found
01 -===- track 1 in drive PIONEER DVD-RW  DVR-216D
  Track ripped successfully
  Conclusion: this track is CDDA with probability 100%
  Tempfile successfully deleted.
02 -===- track 2 in drive PIONEER DVD-RW  DVR-216D
  Track ripped successfully
  Conclusion: this track is CDDA with probability 100%
  Tempfile successfully deleted.
03 -===- track 3 in drive PIONEER DVD-RW  DVR-216D
  Track ripped successfully
  Conclusion: this track is CDDA with probability 99%
  Tempfile successfully deleted.
04 -===- track 4 in drive PIONEER DVD-RW  DVR-216D
  Track ripped successfully
  Conclusion: this track is CDDA with probability 100%
  Tempfile successfully deleted.
05 -===- track 5 in drive PIONEER DVD-RW  DVR-216D
  Track ripped successfully
  Conclusion: this track is CDDA with probability 100%
  Tempfile successfully deleted.
06 -===- track 6 in drive PIONEER DVD-RW  DVR-216D
  Track ripped successfully
  Conclusion: this track is CDDA with probability 100%
  Tempfile successfully deleted.
07 -===- track 7 in drive PIONEER DVD-RW  DVR-216D
  Track ripped successfully
  Conclusion: this track is CDDA with probability 100%
  Tempfile successfully deleted.
08 -===- track 8 in drive PIONEER DVD-RW  DVR-216D
  Track ripped successfully
  Conclusion: this track is CDDA with probability 100%
  Tempfile successfully deleted.
09 -===- track 9 in drive PIONEER DVD-RW  DVR-216D
  Track ripped successfully
  Conclusion: this track is CDDA with probability 100%
  Tempfile successfully deleted.
10 -===- track 10 in drive PIONEER DVD-RW  DVR-216D
  Track ripped successfully
  Conclusion: this track is CDDA with probability 100%
  Tempfile successfully deleted.
11 -===- track 11 in drive PIONEER DVD-RW  DVR-216D
  Track ripped successfully
  Conclusion: this track is CDDA with probability 100%
  Tempfile successfully deleted.
12 -===- track 12 in drive PIONEER DVD-RW  DVR-216D
  Track ripped successfully
  Conclusion: this track is CDDA with probability 99%
  Tempfile successfully deleted.
13 -===- track 13 in drive PIONEER DVD-RW  DVR-216D
  Track ripped successfully
  Conclusion: this track is CDDA with probability 100%
  Tempfile successfully deleted.
14 -===- track 14 in drive PIONEER DVD-RW  DVR-216D
  Track ripped successfully
  Conclusion: this track is CDDA with probability 100%
  Tempfile successfully deleted.
Finished at: вторник, 02. 11. 2010. - 21:03.05 (operation time: 0:10.50)
#777Треклист:
1 Human With Radiation 6:39
2 Visceralofobia 4:07
3 Sueños Rotos 4:55
4 Falsas Palabras 5:18
5 Me Torment 3:14
6 Arzamas 16 2:09
7 Skin And Bones 4:10
8 Posible Final 3:57
9 Red Sludge 4:15
10 The Shame 5:41
11 The Black Door 5:08
12 Rust 4:32
13 Anguish Under Tyranny 4:51
14 Move Your Body. Now! 3:44
15 Turn Back To Die 2:20
16 Unter Die Seele 4:00
Код:
Exact Audio Copy V0.99 prebeta 5 from 4. May 2009
EAC extraction logfile from 30. August 2011, 20:04
Asseptic Room / Visceralofobia
Used drive  : PIONEER BD-RW   BDR-206M   Adapter: 0  ID: 3
Read mode               : Secure
Utilize accurate stream : Yes
Defeat audio cache      : Yes
Make use of C2 pointers : No
Read offset correction                      : 667
Overread into Lead-In and Lead-Out          : No
Fill up missing offset samples with silence : Yes
Delete leading and trailing silent blocks   : No
Null samples used in CRC calculations       : Yes
Used interface                              : Native Win32 interface for Win NT & 2000
Gap handling                                : Appended to previous track
Used output format              : User Defined Encoder
Selected bitrate                : 1024 kBit/s
Quality                         : High
Add ID3 tag                     : No
Command line compressor         : C:\Program Files (x86)\Exact Audio Copy\Flac\flac.exe
Additional command line options : -8 -V -T "ARTIST=%a" -T "TITLE=%t" -T "ALBUM=%g" -T "DATE=%y" -T "TRACKNUMBER=%n" -T "GENRE=%m" -T "COMMENT=EAC FLAC -8" %s
TOC of the extracted CD
     Track |   Start  |  Length  | Start sector | End sector
    ---------------------------------------------------------
        1  |  0:00.00 |  6:39.54 |         0    |    29978
        2  |  6:39.54 |  4:07.43 |     29979    |    48546
        3  | 10:47.22 |  4:55.37 |     48547    |    70708
        4  | 15:42.59 |  5:18.12 |     70709    |    94570
        5  | 21:00.71 |  3:14.01 |     94571    |   109121
        6  | 24:14.72 |  2:09.32 |    109122    |   118828
        7  | 26:24.29 |  4:10.19 |    118829    |   137597
        8  | 30:34.48 |  3:57.12 |    137598    |   155384
        9  | 34:31.60 |  4:15.28 |    155385    |   174537
       10  | 38:47.13 |  5:41.14 |    174538    |   200126
       11  | 44:28.27 |  5:08.09 |    200127    |   223235
       12  | 49:36.36 |  4:32.00 |    223236    |   243635
       13  | 54:08.36 |  4:51.23 |    243636    |   265483
       14  | 58:59.59 |  3:44.12 |    265484    |   282295
       15  | 62:43.71 |  2:20.71 |    282296    |   292866
       16  | 65:04.67 |  4:00.35 |    292867    |   310901
Track  1
     Filename C:\Users\Usa\Desktop\Asseptic Room - Visceralofobia\tracks\01. Asseptic Room - Human With Radiation.wav
     Pre-gap length  0:00:02.00
     Peak level 97.7 %
     Track quality 100.0 %
     Test CRC 50E337E9
     Copy CRC 50E337E9
     Track not present in AccurateRip database
     Copy OK
Track  2
     Filename C:\Users\Usa\Desktop\Asseptic Room - Visceralofobia\tracks\02. Asseptic Room - Visceralofobia.wav
     Peak level 97.7 %
     Track quality 100.0 %
     Test CRC 3B116CCF
     Copy CRC 3B116CCF
     Track not present in AccurateRip database
     Copy OK
Track  3
     Filename C:\Users\Usa\Desktop\Asseptic Room - Visceralofobia\tracks\03. Asseptic Room - Suenos Rotos.wav
     Peak level 97.7 %
     Track quality 100.0 %
     Test CRC 97B16F2E
     Copy CRC 97B16F2E
     Track not present in AccurateRip database
     Copy OK
Track  4
     Filename C:\Users\Usa\Desktop\Asseptic Room - Visceralofobia\tracks\04. Asseptic Room - Falsas Palabras.wav
     Peak level 97.7 %
     Track quality 100.0 %
     Test CRC 2C8391EF
     Copy CRC 2C8391EF
     Track not present in AccurateRip database
     Copy OK
Track  5
     Filename C:\Users\Usa\Desktop\Asseptic Room - Visceralofobia\tracks\05. Asseptic Room - Me Torment.wav
     Peak level 100.0 %
     Track quality 100.0 %
     Test CRC 4C61B1F9
     Copy CRC 4C61B1F9
     Track not present in AccurateRip database
     Copy OK
Track  6
     Filename C:\Users\Usa\Desktop\Asseptic Room - Visceralofobia\tracks\06. Asseptic Room - Arzamas 16.wav
     Peak level 97.7 %
     Track quality 100.0 %
     Test CRC DF0695E9
     Copy CRC DF0695E9
     Track not present in AccurateRip database
     Copy OK
Track  7
     Filename C:\Users\Usa\Desktop\Asseptic Room - Visceralofobia\tracks\07. Asseptic Room - Skin And Bones.wav
     Peak level 97.7 %
     Track quality 100.0 %
     Test CRC 817B2B5C
     Copy CRC 817B2B5C
     Track not present in AccurateRip database
     Copy OK
Track  8
     Filename C:\Users\Usa\Desktop\Asseptic Room - Visceralofobia\tracks\08. Asseptic Room - Posible Final.wav
     Peak level 97.7 %
     Track quality 100.0 %
     Test CRC DAA7221E
     Copy CRC DAA7221E
     Track not present in AccurateRip database
     Copy OK
Track  9
     Filename C:\Users\Usa\Desktop\Asseptic Room - Visceralofobia\tracks\09. Asseptic Room - Red Sludge.wav
     Peak level 97.7 %
     Track quality 99.9 %
     Test CRC 43DAC27D
     Copy CRC 43DAC27D
     Track not present in AccurateRip database
     Copy OK
Track 10
     Filename C:\Users\Usa\Desktop\Asseptic Room - Visceralofobia\tracks\10. Asseptic Room - The Shame.wav
     Peak level 97.7 %
     Track quality 100.0 %
     Test CRC 02B5491E
     Copy CRC 02B5491E
     Track not present in AccurateRip database
     Copy OK
Track 11
     Filename C:\Users\Usa\Desktop\Asseptic Room - Visceralofobia\tracks\11. Asseptic Room - The Black Door.wav
     Peak level 97.7 %
     Track quality 99.9 %
     Test CRC B50BDF4A
     Copy CRC B50BDF4A
     Track not present in AccurateRip database
     Copy OK
Track 12
     Filename C:\Users\Usa\Desktop\Asseptic Room - Visceralofobia\tracks\12. Asseptic Room - Rust.wav
     Peak level 97.7 %
     Track quality 100.0 %
     Test CRC 1F99451A
     Copy CRC 1F99451A
     Track not present in AccurateRip database
     Copy OK
Track 13
     Filename C:\Users\Usa\Desktop\Asseptic Room - Visceralofobia\tracks\13. Asseptic Room - Anguish Under Tyranny.wav
     Peak level 97.7 %
     Track quality 100.0 %
     Test CRC 3487204F
     Copy CRC 3487204F
     Track not present in AccurateRip database
     Copy OK
Track 14
     Filename C:\Users\Usa\Desktop\Asseptic Room - Visceralofobia\tracks\14. Asseptic Room - Move Your Body, Now!.wav
     Peak level 97.7 %
     Track quality 100.0 %
     Test CRC F4025E10
     Copy CRC F4025E10
     Track not present in AccurateRip database
     Copy OK
Track 15
     Filename C:\Users\Usa\Desktop\Asseptic Room - Visceralofobia\tracks\15. Asseptic Room - Turn Back The Die.wav
     Peak level 97.7 %
     Track quality 100.0 %
     Test CRC 8C776C35
     Copy CRC 8C776C35
     Track not present in AccurateRip database
     Copy OK
Track 16
     Filename C:\Users\Usa\Desktop\Asseptic Room - Visceralofobia\tracks\16. Asseptic Room - Unter Die Seele.wav
     Peak level 97.7 %
     Track quality 100.0 %
     Test CRC 388C6222
     Copy CRC 388C6222
     Track not present in AccurateRip database
     Copy OK
None of the tracks are present in the AccurateRip database
No errors occurred
End of status report
Код:
REM GENRE Industrial
REM DATE 2011
REM DISCID EF103110
REM COMMENT "ExactAudioCopy v0.99pb5"
PERFORMER "Asseptic Room"
TITLE "Visceralofobia"
FILE "01. Asseptic Room - Human With Radiation.wav" WAVE
  TRACK 01 AUDIO
    TITLE "Human With Radiation"
    PERFORMER "Asseptic Room"
    INDEX 01 00:00:00
FILE "02. Asseptic Room - Visceralofobia.wav" WAVE
  TRACK 02 AUDIO
    TITLE "Visceralofobia"
    PERFORMER "Asseptic Room"
    INDEX 01 00:00:00
FILE "03. Asseptic Room - Suenos Rotos.wav" WAVE
  TRACK 03 AUDIO
    TITLE "Suenos Rotos"
    PERFORMER "Asseptic Room"
    INDEX 01 00:00:00
FILE "04. Asseptic Room - Falsas Palabras.wav" WAVE
  TRACK 04 AUDIO
    TITLE "Falsas Palabras"
    PERFORMER "Asseptic Room"
    INDEX 01 00:00:00
FILE "05. Asseptic Room - Me Torment.wav" WAVE
  TRACK 05 AUDIO
    TITLE "Me Torment"
    PERFORMER "Asseptic Room"
    INDEX 01 00:00:00
FILE "06. Asseptic Room - Arzamas 16.wav" WAVE
  TRACK 06 AUDIO
    TITLE "Arzamas 16"
    PERFORMER "Asseptic Room"
    INDEX 01 00:00:00
FILE "07. Asseptic Room - Skin And Bones.wav" WAVE
  TRACK 07 AUDIO
    TITLE "Skin And Bones"
    PERFORMER "Asseptic Room"
    INDEX 01 00:00:00
FILE "08. Asseptic Room - Posible Final.wav" WAVE
  TRACK 08 AUDIO
    TITLE "Posible Final"
    PERFORMER "Asseptic Room"
    INDEX 01 00:00:00
FILE "09. Asseptic Room - Red Sludge.wav" WAVE
  TRACK 09 AUDIO
    TITLE "Red Sludge"
    PERFORMER "Asseptic Room"
    INDEX 01 00:00:00
FILE "10. Asseptic Room - The Shame.wav" WAVE
  TRACK 10 AUDIO
    TITLE "The Shame"
    PERFORMER "Asseptic Room"
    INDEX 01 00:00:00
FILE "11. Asseptic Room - The Black Door.wav" WAVE
  TRACK 11 AUDIO
    TITLE "The Black Door"
    PERFORMER "Asseptic Room"
    INDEX 01 00:00:00
FILE "12. Asseptic Room - Rust.wav" WAVE
  TRACK 12 AUDIO
    TITLE "Rust"
    PERFORMER "Asseptic Room"
    INDEX 01 00:00:00
FILE "13. Asseptic Room - Anguish Under Tyranny.wav" WAVE
  TRACK 13 AUDIO
    TITLE "Anguish Under Tyranny"
    PERFORMER "Asseptic Room"
    INDEX 01 00:00:00
FILE "14. Asseptic Room - Move Your Body, Now!.wav" WAVE
  TRACK 14 AUDIO
    TITLE "Move Your Body, Now!"
    PERFORMER "Asseptic Room"
    INDEX 01 00:00:00
FILE "15. Asseptic Room - Turn Back The Die.wav" WAVE
  TRACK 15 AUDIO
    TITLE "Turn Back The Die"
    PERFORMER "Asseptic Room"
    INDEX 01 00:00:00
FILE "16. Asseptic Room - Unter Die Seele.wav" WAVE
  TRACK 16 AUDIO
    TITLE "Unter Die Seele"
    PERFORMER "Asseptic Room"
    INDEX 01 00:00:00
Код:
Начато: вторник, 30. 08. 2011. - 18:29.31
Найдено файлов: 16
01 -===- трек 1 в приводе PIONEER BD-RW   BDR-206M
  Трек успешно извлечён
  Заключение: этот трек - CDDA с вероятностью 99%
  Временный файл удалён.
02 -===- трек 2 в приводе PIONEER BD-RW   BDR-206M
  Трек успешно извлечён
  Заключение: этот трек - CDDA с вероятностью 100%
  Временный файл удалён.
03 -===- трек 3 в приводе PIONEER BD-RW   BDR-206M
  Трек успешно извлечён
  Заключение: этот трек - CDDA с вероятностью 100%
  Временный файл удалён.
04 -===- трек 4 в приводе PIONEER BD-RW   BDR-206M
  Трек успешно извлечён
  Заключение: этот трек - CDDA с вероятностью 100%
  Временный файл удалён.
05 -===- трек 5 в приводе PIONEER BD-RW   BDR-206M
  Трек успешно извлечён
  Заключение: этот трек - CDDA с вероятностью 100%
  Временный файл удалён.
06 -===- трек 6 в приводе PIONEER BD-RW   BDR-206M
  Трек успешно извлечён
  Заключение: этот трек - CDDA с вероятностью 100%
  Временный файл удалён.
07 -===- трек 7 в приводе PIONEER BD-RW   BDR-206M
  Трек успешно извлечён
  Заключение: этот трек - CDDA с вероятностью 100%
  Временный файл удалён.
08 -===- трек 8 в приводе PIONEER BD-RW   BDR-206M
  Трек успешно извлечён
  Заключение: этот трек - CDDA с вероятностью 100%
  Временный файл удалён.
09 -===- трек 9 в приводе PIONEER BD-RW   BDR-206M
  Трек успешно извлечён
  Заключение: этот трек - CDDA с вероятностью 100%
  Временный файл удалён.
10 -===- трек 10 в приводе PIONEER BD-RW   BDR-206M
  Трек успешно извлечён
  Заключение: этот трек - CDDA с вероятностью 100%
  Временный файл удалён.
11 -===- трек 11 в приводе PIONEER BD-RW   BDR-206M
  Трек успешно извлечён
  Заключение: этот трек - CDDA с вероятностью 100%
  Временный файл удалён.
12 -===- трек 12 в приводе PIONEER BD-RW   BDR-206M
  Трек успешно извлечён
  Заключение: этот трек - CDDA с вероятностью 100%
  Временный файл удалён.
13 -===- трек 13 в приводе PIONEER BD-RW   BDR-206M
  Трек успешно извлечён
  Заключение: этот трек - CDDA с вероятностью 100%
  Временный файл удалён.
14 -===- трек 14 в приводе PIONEER BD-RW   BDR-206M
  Трек успешно извлечён
  Заключение: этот трек - CDDA с вероятностью 100%
  Временный файл удалён.
15 -===- трек 15 в приводе PIONEER BD-RW   BDR-206M
  Трек успешно извлечён
  Заключение: этот трек - CDDA с вероятностью 99%
  Временный файл удалён.
16 -===- трек 16 в приводе PIONEER BD-RW   BDR-206M
  Трек успешно извлечён
  Заключение: этот трек - CDDA с вероятностью 100%
  Временный файл удалён.
Завершено: вторник, 30. 08. 2011. - 18:40.31 (Время операции: 0:10.59)
Добавлен альбом Visceralofobia, просьба перекачать торрент файл.
Правила, инструкции, FAQ!!!
Торрент  Добавлен [26 июн 2020, 17:08] Скачать торрент Магнет ссылка
Скачать торрент
[ Размер 18.24 КБ / Просмотров 4 ]

Статус
Проверен 
 
Размер  1.1 ГБ
Приватный: Нет (DHT включён)
.torrent скачан  0
 


     Отправить личное сообщение
   
Страница 1 из 1
Показать сообщения за:  Поле сортировки  
Начать новую тему Ответить на тему


Сейчас этот форум просматривают: нет зарегистрированных пользователей и гости: 0


Вы не можете начинать темы
Вы не можете отвечать на сообщения
Вы не можете редактировать свои сообщения
Вы не можете удалять свои сообщения
Вы не можете добавлять вложения

Перейти:  
cron