Начать новую тему Ответить на тему
Статистика раздачи
Размер: 489.48 МБ | Добавлен: 26 июн 2020, 17:34 | Скачали: 0
Сидеров: 0  [0 байт/сек]    Личеров: 0  [0 байт/сек]
Пред. тема | След. тема 

Автор
Сообщение

СообщениеДобавлено: 26 июн 2020, 17:34 

Ответить с цитатой 

Aghast View - Carcinopest
Жанр: EBM, Industrial
Год выпуска диска: 1998
Производитель диска: Канада
Аудио кодек: FLAC
Тип рипа: tracks+.cue
Битрейт аудио: lossless
Трэклист:
01 Pay Off (6:06)
02 Fade Away (4:59)
03 Torrent Haze (4:15)
04 God's Fist (5:24)
05 Immunity (4:39)
06 Per / Version (4:26)
07 Intervention (5:33)
08 Down Race (5:04)
09 Truthlike (5:48)
10 God's Acre (4:15)
11 Immunity (Dub) (4:03)
12 Fadefuck (2:21)
13 Vaporize (5:23)
14 Untitled (Hidden Track) (3:10)
Код:
Exact Audio Copy V0.99 prebeta 4 from 23. January 2008
EAC extraction logfile from 28. June 2008, 21:14
Aghast View / Carcinopest
Used drive  : ATAPI   DVD A  DH20A4H   Adapter: 0  ID: 0
Read mode               : Secure
Utilize accurate stream : Yes
Defeat audio cache      : Yes
Make use of C2 pointers : No
Read offset correction                      : 6
Overread into Lead-In and Lead-Out          : No
Fill up missing offset samples with silence : Yes
Delete leading and trailing silent blocks   : No
Null samples used in CRC calculations       : Yes
Used interface                              : Native Win32 interface for Win NT & 2000
Gap handling                                : Appended to previous track
Used output format              : User Defined Encoder
Selected bitrate                : 192 kBit/s
Quality                         : High
Add ID3 tag                     : No
Command line compressor         : C:\Program Files\flac-1.1.4-win\bin\flac.exe
Additional command line options : -8 -A tukey(0.25) -A gauss(0.1875) -b 4096 -V -T "artist=%a" -T "title=%t" -T "album=%g" -T "date=%y" -T "tracknumber=%n" -T "genre=%m" %s --sector-align
TOC of the extracted CD
     Track |   Start  |  Length  | Start sector | End sector
    ---------------------------------------------------------
        1  |  0:00.00 |  6:06.59 |         0    |    27508
        2  |  6:06.59 |  4:59.33 |     27509    |    49966
        3  | 11:06.17 |  4:15.73 |     49967    |    69164
        4  | 15:22.15 |  5:24.38 |     69165    |    93502
        5  | 20:46.53 |  4:39.15 |     93503    |   114442
        6  | 25:25.68 |  4:26.33 |    114443    |   134425
        7  | 29:52.26 |  5:33.64 |    134426    |   159464
        8  | 35:26.15 |  5:04.15 |    159465    |   182279
        9  | 40:30.30 |  5:48.31 |    182280    |   208410
       10  | 46:18.61 |  4:15.60 |    208411    |   227595
       11  | 50:34.46 |  4:03.66 |    227596    |   245886
       12  | 54:38.37 |  2:21.58 |    245887    |   256519
       13  | 57:00.20 |  5:23.42 |    256520    |   280786
       14  | 62:23.62 |  3:10.65 |    280787    |   295101
Track  1
     Filename Y:\Carcinopest\01 - Pay Off.wav
     Pre-gap length  0:00:02.00
     Peak level 98.9 %
     Track quality 100.0 %
     Test CRC 3E2E70EF
     Copy CRC 3E2E70EF
     Track not present in AccurateRip database
     Copy OK
Track  2
     Filename Y:\Carcinopest\02 - Fade Away.wav
     Peak level 98.9 %
     Track quality 100.0 %
     Test CRC 0CBFFBFD
     Copy CRC 0CBFFBFD
     Track not present in AccurateRip database
     Copy OK
Track  3
     Filename Y:\Carcinopest\03 - Torrent Haze.wav
     Peak level 99.0 %
     Track quality 100.0 %
     Test CRC 310E21A7
     Copy CRC 310E21A7
     Track not present in AccurateRip database
     Copy OK
Track  4
     Filename Y:\Carcinopest\04 - God's Fist.wav
     Peak level 98.9 %
     Track quality 100.0 %
     Test CRC 4BB587BE
     Copy CRC 4BB587BE
     Track not present in AccurateRip database
     Copy OK
Track  5
     Filename Y:\Carcinopest\05 - Immunity.wav
     Peak level 100.0 %
     Track quality 100.0 %
     Test CRC 39CC96AD
     Copy CRC 39CC96AD
     Track not present in AccurateRip database
     Copy OK
Track  6
     Filename Y:\Carcinopest\06 - Per-version.wav
     Peak level 98.9 %
     Track quality 100.0 %
     Test CRC 7C709CB1
     Copy CRC 7C709CB1
     Track not present in AccurateRip database
     Copy OK
Track  7
     Filename Y:\Carcinopest\07 - Intervention.wav
     Pre-gap length  0:00:00.01
     Peak level 98.9 %
     Track quality 100.0 %
     Test CRC 663BC43C
     Copy CRC 663BC43C
     Track not present in AccurateRip database
     Copy OK
Track  8
     Filename Y:\Carcinopest\08 - Down Race.wav
     Peak level 98.9 %
     Track quality 100.0 %
     Test CRC 3908A89D
     Copy CRC 3908A89D
     Track not present in AccurateRip database
     Copy OK
Track  9
     Filename Y:\Carcinopest\09 - Truthlike.wav
     Peak level 99.0 %
     Track quality 100.0 %
     Test CRC 81C248D9
     Copy CRC 81C248D9
     Track not present in AccurateRip database
     Copy OK
Track 10
     Filename Y:\Carcinopest\10 - God's Acre.wav
     Peak level 98.9 %
     Track quality 100.0 %
     Test CRC 9409935C
     Copy CRC 9409935C
     Track not present in AccurateRip database
     Copy OK
Track 11
     Filename Y:\Carcinopest\11 - Immunity (dub).wav
     Peak level 98.9 %
     Track quality 100.0 %
     Test CRC CBF3888F
     Copy CRC CBF3888F
     Track not present in AccurateRip database
     Copy OK
Track 12
     Filename Y:\Carcinopest\12 - Fadefuck.wav
     Peak level 98.9 %
     Track quality 99.9 %
     Test CRC 954C7504
     Copy CRC 954C7504
     Track not present in AccurateRip database
     Copy OK
Track 13
     Filename Y:\Carcinopest\13 - Vaporize.wav
     Peak level 98.9 %
     Track quality 100.0 %
     Test CRC 7005001F
     Copy CRC 7005001F
     Track not present in AccurateRip database
     Copy OK
Track 14
     Filename Y:\Carcinopest\14 - Truthlike (in strict confidence remix).wav
     Peak level 98.9 %
     Track quality 100.0 %
     Test CRC 520747E5
     Copy CRC 520747E5
     Track not present in AccurateRip database
     Copy OK
None of the tracks are present in the AccurateRip database
No errors occurred
End of status report

HQ SCANS внутри
Канонический" dark ebm/electro. В принципе это можно понять хотя-бы из того, на каком лейбле пишется группа - "Gashed" - ebm/electro label. А первая редакция этого альбома вышла на Zoth Ommog (практически самый крупный ebm / electro label).
Aghast View - группа из Бразилии. Оказывается, в Бразилии есть группы, которые на высоком уровне могут создaвать ebm. Этот релиз можно спокойно положить на полку рядом с cd's групп-грандов Wumpscut, Mentallo and the Fixer, Leather Strip. CARCINOPEST - второй альбом Aghast View. По звуку данный альбом напоминает концентрированый микс наиболее положительных качеств всех вышеперечисленных комманд и соединяет ярость Wumpscut с холодной эстетикой Leather Strip. При всех этих сравнениях Aghast View являеться полностью оригинальным ebm проектом. Поскольку характерной чертой их музыки можно назвать концентрированость каждого трека. Кажется, что каждая песня долго выстаивалась в чьем-то холодном, синтетическом и полном темной энергии сознании и приобрела все его черты...
Aghast View была создана в 1992 бразильцами Guilherme Pires, Fabricio Viscardi, Denis Rudge & Rodolfo Viscardi, которые в этот составе упешно играют dark ebm/electro и по сей день... Также на протяжении своего творчества Aghast View сделали кучу ремиксов - на In Strict Confidence, Swamp Terrorists, NEUROACTIVE etc... Данный альбом включает ремиксы на In Strict Confidence и Funker Vogt, а потому дает как полное ощущение оригинальной силы и мрачного напора Aghast View, так и их способности совершенствовать чужой материал
Правила, инструкции, FAQ!!!
Торрент  Добавлен [26 июн 2020, 17:34] Скачать торрент Магнет ссылка
Скачать торрент
[ Размер 20.63 КБ / Просмотров 11 ]

Статус
Проверен 
 
Размер  489.48 МБ
Приватный: Нет (DHT включён)
.torrent скачан  0
 


     Отправить личное сообщение
   
Страница 1 из 1
Показать сообщения за:  Поле сортировки  
Начать новую тему Ответить на тему


Сейчас этот форум просматривают: нет зарегистрированных пользователей и гости: 0


Вы не можете начинать темы
Вы не можете отвечать на сообщения
Вы не можете редактировать свои сообщения
Вы не можете удалять свои сообщения
Вы не можете добавлять вложения

Перейти:  
cron