Начать новую тему Ответить на тему
Статистика раздачи
Размер: 332.98 МБ | Добавлен: 26 июн 2020, 19:05 | Скачали: 0
Сидеров: 0  [0 байт/сек]    Личеров: 0  [0 байт/сек]
Пред. тема | След. тема 

Автор
Сообщение

СообщениеДобавлено: 26 июн 2020, 19:05 

Ответить с цитатой 

Aesthetic Perfection / A Nice Place To Destroy [Single]
#777Жанр: EBM industrial
Страна-производитель диска: Germany
Год издания: 2012
Издатель (лейбл): Out Of Line
Номер по каталогу: OUT552
Аудиокодек: FLAC (*.flac)
Тип рипа: image+.cue
Битрейт аудио: lossless
Продолжительность: 44:22.11
Источник (релизер): Физический носитель
Наличие сканов в содержимом раздачи: да
Треклист:
01. A Nice Place To Visit (Album Version) [3:46]
02. A Nice Place To Visit (Formalin remix) [4:31]
03. A Nice Place To Visit (Double Plus Ten remix) [4:55]
04. A Nice Place To Visit (Of These Hope remix) [6:37]
05. All Beauty Destroyed (Album Version) [3:56]
06. All Beauty Destroyed (Daniel Myer remix) [4:13]
07. All Beauty Destroyed (Comaduster remix) [4:07]
08. All Beauty Destroyed (EMP 80834 remix) [4:25]
09. All Beauty Destroyed (Sensuous Enemy remix) [4:01]
10. She Drives Me Crazy [3:49]
Код:
Exact Audio Copy V1.0 beta 3 from 29. August 2011
Отчёт EAC об извлечении, выполненном 16. августа 2012, 10:07
Aesthetic Perfection / A Nice Place To Destroy [Single]
Дисковод: _NEC    DVD_RW ND-3520A   Adapter: 0  ID: 1
Режим чтения                 : Достоверность
Использование точного потока : Да
Отключение кэша аудио        : Да
Использование указателей C2  : Нет
Коррекция смещения при чтении                     : 48
Способность читать области Lead-in и Lead-out     : Нет
Заполнение пропущенных сэмплов тишиной            : Да
Удаление блоков с тишиной в начале и конце        : Нет
При вычислениях CRC использовались нулевые сэмплы : Да
Интерфейс                                         : Установленный внешний ASPI-интерфейс
Выходной формат          : Пользовательский кодировщик
Выбранный битрейт        : 1024 kBit/s
Качество                 : Высокий
Добавление ID3-тега      : Нет
Утилита сжатия           : C:\Program Files\Exact Audio Copy\Flac\flac.exe
Дополнительные параметры : -6 -V -T "Date=%year%" -T "Genre=%genre%" %source%
TOC извлечённого CD
     Трек |   Старт  | Длительность | Начальный сектор | Конечный сектор
    ---------------------------------------------------------------------
       1  |  0:00.00 |    3:45.65   |           0      |      16939
       2  |  3:45.65 |    4:31.23   |       16940      |      37287
       3  |  8:17.13 |    4:55.26   |       37288      |      59438
       4  | 13:12.39 |    6:37.12   |       59439      |      89225
       5  | 19:49.51 |    3:56.19   |       89226      |     106944
       6  | 23:45.70 |    4:13.26   |      106945      |     125945
       7  | 27:59.21 |    4:07.36   |      125946      |     144506
       8  | 32:06.57 |    4:25.37   |      144507      |     164418
       9  | 36:32.19 |    4:00.71   |      164419      |     182489
      10  | 40:33.15 |    3:48.71   |      182490      |     199660
Характеристики диапазона извлечения и сообщения об ошибках
Выбранный диапазон
     Имя файла D:\На трекер\Aesthetic Perfection - A Nice Place To Destroy [Single].wav
     Пиковый уровень 98.8 %
     Скорость извлечения 5.7 X
     Качество диапазона 100.0 %
     CRC теста C44308D4
     CRC копии C44308D4
     Копирование... OK
Ошибок не произошло
AccurateRip: сводка
Трек  1  : извлечено точно (доверие 1)  [B6AB1F74]  (AR v2)
Трек  2  : извлечено точно (доверие 1)  [F2F64A05]  (AR v2)
Трек  3  : извлечено точно (доверие 1)  [A6C81201]  (AR v2)
Трек  4  : извлечено точно (доверие 1)  [38618866]  (AR v2)
Трек  5  : извлечено точно (доверие 1)  [C1B3D066]  (AR v2)
Трек  6  : извлечено точно (доверие 1)  [DA168786]  (AR v2)
Трек  7  : извлечено точно (доверие 1)  [1AE5DE63]  (AR v2)
Трек  8  : извлечено точно (доверие 1)  [A50A03AD]  (AR v2)
Трек  9  : извлечено точно (доверие 1)  [E21D07D8]  (AR v2)
Трек 10  : извлечено точно (доверие 1)  [B4881956]  (AR v2)
Все треки извлечены точно
Конец отчёта
==== Контрольная сумма отчёта 427C004111C5DE4FF868B10D968F077405922402C00A21D0DABFBCBD128EC65C ====
Правила, инструкции, FAQ!!!
Торрент  Добавлен [26 июн 2020, 19:05] Скачать торрент Магнет ссылка
Скачать торрент
[ Размер 14.03 КБ / Просмотров 12 ]

Статус
Проверен 
 
Размер  332.98 МБ
Приватный: Нет (DHT включён)
.torrent скачан  0
 


     Отправить личное сообщение
   
Страница 1 из 1
Показать сообщения за:  Поле сортировки  
Начать новую тему Ответить на тему


Сейчас этот форум просматривают: нет зарегистрированных пользователей и гости: 0


Вы не можете начинать темы
Вы не можете отвечать на сообщения
Вы не можете редактировать свои сообщения
Вы не можете удалять свои сообщения
Вы не можете добавлять вложения

Перейти:  
cron