Начать новую тему Ответить на тему
Статистика раздачи
Размер: 476.55 МБ | Добавлен: 26 июн 2020, 17:10 | Скачали: 0
Сидеров: 0  [0 байт/сек]    Личеров: 0  [0 байт/сек]
Пред. тема | След. тема 

Автор
Сообщение

СообщениеДобавлено: 26 июн 2020, 17:10 

Ответить с цитатой 

A7IE / Narcissick
Жанр: EBM, Industrial
Страна-производитель диска: Hungary
Год издания диска: 2011
Издатель (лейбл): Advoxya
Номер по каталогу: AD-HUN-55-EP
Страна: France
Аудиокодек: FLAC (*.flac)
Тип рипа: tracks+.cue
Битрейт аудио: lossless
Продолжительность: 62:41
Источник (релизер): CD-R
Наличие сканов в содержимом раздачи: нет
Треклист:
1 Lullaby Of Pain (Clubmix) 6:45
2 Some Kind Of Hate (Remix By Kaos Frequenz) 5:01
3 I, Liar (Touched By Stahlnebel & Black Selket) 6:00
4 Martyr (Remixed By Centhron) 4:45
5 Stay (Remixed By Syndrome x/209 V1.0) 4:29
6 The Blaze 4:57
7 Angels (Remixed By Niteshift) 5:39
8 Some Kind Of Hate (Wyjebany Mix By RSM) 4:34
9 The Blaze (Remixed By Project Rotten) 5:24
10 Neuroleptics (vs Nexus VI) 4:08
11 Some Kind Of Hate (Remixxx By Dolls Of Pain) 5:00
12 Angels (Be Forwarned Mix By The Twilight Freakshow) 5:55
Код:
Exact Audio Copy V0.99 prebeta 5 from 4. May 2009
EAC extraction logfile from 9. October 2011, 14:08
A7ie / Narcissick
Used drive  : PIONEER BD-RW   BDR-206M   Adapter: 0  ID: 3
Read mode               : Secure
Utilize accurate stream : Yes
Defeat audio cache      : Yes
Make use of C2 pointers : No
Read offset correction                      : 667
Overread into Lead-In and Lead-Out          : No
Fill up missing offset samples with silence : Yes
Delete leading and trailing silent blocks   : No
Null samples used in CRC calculations       : Yes
Used interface                              : Native Win32 interface for Win NT & 2000
Gap handling                                : Appended to previous track
Used output format              : User Defined Encoder
Selected bitrate                : 1024 kBit/s
Quality                         : High
Add ID3 tag                     : No
Command line compressor         : C:\Program Files (x86)\Exact Audio Copy\Flac\flac.exe
Additional command line options : -8 -V -T "ARTIST=%a" -T "TITLE=%t" -T "ALBUM=%g" -T "DATE=%y" -T "TRACKNUMBER=%n" -T "GENRE=%m" -T "COMMENT=EAC FLAC -8" %s
TOC of the extracted CD
     Track |   Start  |  Length  | Start sector | End sector
    ---------------------------------------------------------
        1  |  0:00.00 |  6:45.60 |         0    |    30434
        2  |  6:45.60 |  5:01.67 |     30435    |    53076
        3  | 11:47.52 |  6:00.07 |     53077    |    80083
        4  | 17:47.59 |  4:45.52 |     80084    |   101510
        5  | 22:33.36 |  4:29.15 |    101511    |   121700
        6  | 27:02.51 |  4:57.15 |    121701    |   143990
        7  | 31:59.66 |  5:39.37 |    143991    |   169452
        8  | 37:39.28 |  4:34.00 |    169453    |   190002
        9  | 42:13.28 |  5:24.00 |    190003    |   214302
       10  | 47:37.28 |  4:08.22 |    214303    |   232924
       11  | 51:45.50 |  5:00.15 |    232925    |   255439
       12  | 56:45.65 |  5:55.45 |    255440    |   282109
Track  1
     Filename C:\Users\Usa\Desktop\A7IE - Narcissick\tracks\01. A7ie - Lullaby Of Pain (Clubmix).wav
     Pre-gap length  0:00:02.00
     Peak level 98.8 %
     Track quality 100.0 %
     Test CRC 7297AFB6
     Copy CRC 7297AFB6
     Track not present in AccurateRip database
     Copy OK
Track  2
     Filename C:\Users\Usa\Desktop\A7IE - Narcissick\tracks\02. A7ie - Some Kind Of Hate (Kaos Frequenz Remix).wav
     Peak level 97.7 %
     Track quality 100.0 %
     Test CRC BAEF6E81
     Copy CRC BAEF6E81
     Track not present in AccurateRip database
     Copy OK
Track  3
     Filename C:\Users\Usa\Desktop\A7IE - Narcissick\tracks\03. A7ie - I, Liar (Touched By Stahlnebel & Black Selket).wav
     Peak level 97.7 %
     Track quality 100.0 %
     Test CRC 80C5F1B3
     Copy CRC 80C5F1B3
     Track not present in AccurateRip database
     Copy OK
Track  4
     Filename C:\Users\Usa\Desktop\A7IE - Narcissick\tracks\04. A7ie - Martyr (Centhron Remix).wav
     Peak level 97.7 %
     Track quality 100.0 %
     Test CRC F8887B55
     Copy CRC F8887B55
     Track not present in AccurateRip database
     Copy OK
Track  5
     Filename C:\Users\Usa\Desktop\A7IE - Narcissick\tracks\05. A7ie - Stay (Syndrome X,209 Remix V1.0).wav
     Peak level 97.7 %
     Track quality 100.0 %
     Test CRC F5309F42
     Copy CRC F5309F42
     Track not present in AccurateRip database
     Copy OK
Track  6
     Filename C:\Users\Usa\Desktop\A7IE - Narcissick\tracks\06. A7ie - The Blaze.wav
     Peak level 98.8 %
     Track quality 99.9 %
     Test CRC 04A4A966
     Copy CRC 04A4A966
     Track not present in AccurateRip database
     Copy OK
Track  7
     Filename C:\Users\Usa\Desktop\A7IE - Narcissick\tracks\07. A7ie - Angels (Niteshift Remix).wav
     Peak level 97.7 %
     Track quality 100.0 %
     Test CRC 6A24770C
     Copy CRC 6A24770C
     Track not present in AccurateRip database
     Copy OK
Track  8
     Filename C:\Users\Usa\Desktop\A7IE - Narcissick\tracks\08. A7ie - Some Kind Of Hate (Wyjebany Mix By RSM).wav
     Peak level 97.7 %
     Track quality 100.0 %
     Test CRC DE952121
     Copy CRC DE952121
     Track not present in AccurateRip database
     Copy OK
Track  9
     Filename C:\Users\Usa\Desktop\A7IE - Narcissick\tracks\09. A7ie - The Blaze (Project Rotten Remix).wav
     Peak level 98.8 %
     Track quality 100.0 %
     Test CRC F5A1B528
     Copy CRC F5A1B528
     Track not present in AccurateRip database
     Copy OK
Track 10
     Filename C:\Users\Usa\Desktop\A7IE - Narcissick\tracks\10. A7ie - Neuroleptics (Vs Nexus VI).wav
     Peak level 100.0 %
     Track quality 100.0 %
     Test CRC FCD432DE
     Copy CRC FCD432DE
     Track not present in AccurateRip database
     Copy OK
Track 11
     Filename C:\Users\Usa\Desktop\A7IE - Narcissick\tracks\11. A7ie - Some Kind Of Hate (Dolls Of Pain Remixxx).wav
     Peak level 97.7 %
     Track quality 99.9 %
     Test CRC FB11FDCF
     Copy CRC FB11FDCF
     Track not present in AccurateRip database
     Copy OK
Track 12
     Filename C:\Users\Usa\Desktop\A7IE - Narcissick\tracks\12. A7ie - Angels (Be Forwarned Mix By The Twilight Freakshow).wav
     Peak level 97.7 %
     Track quality 100.0 %
     Test CRC 723749C4
     Copy CRC 723749C4
     Track not present in AccurateRip database
     Copy OK
None of the tracks are present in the AccurateRip database
No errors occurred
End of status report
Код:
REM GENRE Electronic
REM DATE 2011
REM DISCID A00EB10C
REM COMMENT "ExactAudioCopy v0.99pb5"
PERFORMER "A7ie"
TITLE "Narcissick"
FILE "01. A7ie - Lullaby Of Pain (Clubmix).wav" WAVE
  TRACK 01 AUDIO
    TITLE "Lullaby Of Pain (Clubmix)"
    PERFORMER "A7ie"
    INDEX 01 00:00:00
FILE "02. A7ie - Some Kind Of Hate (Kaos Frequenz Remix).wav" WAVE
  TRACK 02 AUDIO
    TITLE "Some Kind Of Hate (Kaos Frequenz Remix)"
    PERFORMER "A7ie"
    INDEX 01 00:00:00
FILE "03. A7ie - I, Liar (Touched By Stahlnebel & Black Selket).wav" WAVE
  TRACK 03 AUDIO
    TITLE "I, Liar (Touched By Stahlnebel & Black Selket)"
    PERFORMER "A7ie"
    INDEX 01 00:00:00
FILE "04. A7ie - Martyr (Centhron Remix).wav" WAVE
  TRACK 04 AUDIO
    TITLE "Martyr (Centhron Remix)"
    PERFORMER "A7ie"
    INDEX 01 00:00:00
FILE "05. A7ie - Stay (Syndrome X,209 Remix V1.0).wav" WAVE
  TRACK 05 AUDIO
    TITLE "Stay (Syndrome X/209 Remix V1.0)"
    PERFORMER "A7ie"
    INDEX 01 00:00:00
FILE "06. A7ie - The Blaze.wav" WAVE
  TRACK 06 AUDIO
    TITLE "The Blaze"
    PERFORMER "A7ie"
    INDEX 01 00:00:00
FILE "07. A7ie - Angels (Niteshift Remix).wav" WAVE
  TRACK 07 AUDIO
    TITLE "Angels (Niteshift Remix)"
    PERFORMER "A7ie"
    INDEX 01 00:00:00
FILE "08. A7ie - Some Kind Of Hate (Wyjebany Mix By RSM).wav" WAVE
  TRACK 08 AUDIO
    TITLE "Some Kind Of Hate (Wyjebany Mix By RSM)"
    PERFORMER "A7ie"
    INDEX 01 00:00:00
FILE "09. A7ie - The Blaze (Project Rotten Remix).wav" WAVE
  TRACK 09 AUDIO
    TITLE "The Blaze (Project Rotten Remix)"
    PERFORMER "A7ie"
    INDEX 01 00:00:00
FILE "10. A7ie - Neuroleptics (Vs Nexus VI).wav" WAVE
  TRACK 10 AUDIO
    TITLE "Neuroleptics (Vs Nexus VI)"
    PERFORMER "A7ie"
    INDEX 01 00:00:00
FILE "11. A7ie - Some Kind Of Hate (Dolls Of Pain Remixxx).wav" WAVE
  TRACK 11 AUDIO
    TITLE "Some Kind Of Hate (Dolls Of Pain Remixxx)"
    PERFORMER "A7ie"
    INDEX 01 00:00:00
FILE "12. A7ie - Angels (Be Forwarned Mix By The Twilight Freakshow).wav" WAVE
  TRACK 12 AUDIO
    TITLE "Angels (Be Forwarned Mix By The Twilight Freakshow)"
    PERFORMER "A7ie"
    INDEX 01 00:00:00
Код:
Started at: воскресенье, 09. 10. 2011. - 13:14.16
12 files found
01 -===- track 1 in drive PIONEER BD-RW   BDR-206M
  Track ripped successfully
  Conclusion: this track is CDDA with probability 100%
  Tempfile successfully deleted.
02 -===- track 2 in drive PIONEER BD-RW   BDR-206M
  Track ripped successfully
  Conclusion: this track is CDDA with probability 100%
  Tempfile successfully deleted.
03 -===- track 3 in drive PIONEER BD-RW   BDR-206M
  Track ripped successfully
  Conclusion: this track is CDDA with probability 100%
  Tempfile successfully deleted.
04 -===- track 4 in drive PIONEER BD-RW   BDR-206M
  Track ripped successfully
  Conclusion: this track is CDDA with probability 100%
  Tempfile successfully deleted.
05 -===- track 5 in drive PIONEER BD-RW   BDR-206M
  Track ripped successfully
  Conclusion: this track is CDDA with probability 100%
  Tempfile successfully deleted.
06 -===- track 6 in drive PIONEER BD-RW   BDR-206M
  Track ripped successfully
  Conclusion: this track is CDDA with probability 100%
  Tempfile successfully deleted.
07 -===- track 7 in drive PIONEER BD-RW   BDR-206M
  Track ripped successfully
  Conclusion: this track is CDDA with probability 100%
  Tempfile successfully deleted.
08 -===- track 8 in drive PIONEER BD-RW   BDR-206M
  Track ripped successfully
  Conclusion: this track is CDDA with probability 100%
  Tempfile successfully deleted.
09 -===- track 9 in drive PIONEER BD-RW   BDR-206M
  Track ripped successfully
  Conclusion: this track is CDDA with probability 100%
  Tempfile successfully deleted.
10 -===- track 10 in drive PIONEER BD-RW   BDR-206M
  Track ripped successfully
  Conclusion: this track is CDDA with probability 100%
  Tempfile successfully deleted.
11 -===- track 11 in drive PIONEER BD-RW   BDR-206M
  Track ripped successfully
  Conclusion: this track is CDDA with probability 100%
  Tempfile successfully deleted.
12 -===- track 12 in drive PIONEER BD-RW   BDR-206M
  Track ripped successfully
  Conclusion: this track is CDDA with probability 100%
  Tempfile successfully deleted.
Finished at: воскресенье, 09. 10. 2011. - 13:23.50 (operation time: 0:09.33)
Доп. информация: http://www.discogs.com/A7IE-Narcissick/release/2965359
http://a7ie.com/
http://www.myspace.com/a7ie
Правила, инструкции, FAQ!!!
Торрент  Добавлен [26 июн 2020, 17:10] Скачать торрент Магнет ссылка
Скачать торрент
[ Размер 20.65 КБ / Просмотров 1 ]

Статус
Проверен 
 
Размер  476.55 МБ
Приватный: Нет (DHT включён)
.torrent скачан  0
 


     Отправить личное сообщение
   
Страница 1 из 1
Показать сообщения за:  Поле сортировки  
Начать новую тему Ответить на тему


Сейчас этот форум просматривают: нет зарегистрированных пользователей и гости: 0


Вы не можете начинать темы
Вы не можете отвечать на сообщения
Вы не можете редактировать свои сообщения
Вы не можете удалять свои сообщения
Вы не можете добавлять вложения

Перейти:  
cron