Начать новую тему Ответить на тему
Статистика раздачи
Размер: 180.15 МБ | Добавлен: 26 июн 2020, 20:39 | Скачали: 0
Сидеров: 0  [0 байт/сек]    Личеров: 0  [0 байт/сек]
Пред. тема | След. тема 

Автор
Сообщение

СообщениеДобавлено: 26 июн 2020, 20:39 

Ответить с цитатой 

Suicide Commando / God Is In The Rain CD5
Жанр: EBM, Industral
Страна-производитель диска: Germany
Год издания диска: 2010
Издатель (лейбл): Out of line
Номер по каталогу: OUT394
Аудио кодек: FLAC (*.flac)
Тип рипа: tracks+.cue
Битрейт аудио: lossless
Продолжительность: CD5
Источник (релизер): Waffles
Наличие сканов в содержимом раздачи: нет
Треклист:
01 God Is In The Rain - (Book Of Lies V1.0) 03:58
02 God Is In The Rain - (Book Of Lies V2.0 - Club Mix) 05:51
03 Infliction Of Pain 02:37
04 God Is In The Rain - (Wumpscut Remix) 05:18
05 God Is In The Rain - (The Synthetic Dream Foundation Remix) 04:18
06 White Lines White Lies (Demo) 04:22
Код:
Exact Audio Copy V0.99 prebeta 5 from 4. May 2009
EAC extraction logfile from 17. August 2010, 17:18
Suicide Commando / God Is In The Rain
Used drive  : TSSTcorpCDDVDW SH-S203B   Adapter: 0  ID: 2
Read mode               : Secure
Utilize accurate stream : Yes
Defeat audio cache      : Yes
Make use of C2 pointers : No
Read offset correction                      : 6
Overread into Lead-In and Lead-Out          : No
Fill up missing offset samples with silence : Yes
Delete leading and trailing silent blocks   : No
Null samples used in CRC calculations       : Yes
Used interface                              : Native Win32 interface for Win NT & 2000
Gap handling                                : Appended to previous track
Used output format              : User Defined Encoder
Selected bitrate                : 192 kBit/s
Quality                         : High
Add ID3 tag                     : No
Command line compressor         : C:\Program Files (x86)\Codecs\FLAC\flac.exe
Additional command line options : -V -8 -T "artist=%a" -T "title=%t" -T "album=%g" -T "date=%y" -T "tracknumber=%n" -T "genre=%m" %s
TOC of the extracted CD
     Track |   Start  |  Length  | Start sector | End sector
    ---------------------------------------------------------
        1  |  0:00.00 |  3:58.23 |         0    |    17872
        2  |  3:58.23 |  5:50.34 |     17873    |    44156
        3  |  9:48.57 |  2:37.12 |     44157    |    55943
        4  | 12:25.69 |  5:17.65 |     55944    |    79783
        5  | 17:43.59 |  4:17.59 |     79784    |    99117
        6  | 22:01.43 |  4:22.32 |     99118    |   118799
Track  1
     Filename M:\Upload\Suicide Commando - God Is In The Rain (2010) - FLAC\01 - God Is in the Rain (Book of Lies V1.0).wav
     Pre-gap length  0:00:02.00
     Peak level 88.6 %
     Track quality 100.0 %
     Test CRC 80CC2E89
     Copy CRC 80CC2E89
     Track not present in AccurateRip database
     Copy OK
Track  2
     Filename M:\Upload\Suicide Commando - God Is In The Rain (2010) - FLAC\02 - God Is in the Rain (Book of Lies V2.0 - Club Mix).wav
     Pre-gap length  0:00:01.00
     Peak level 100.0 %
     Track quality 100.0 %
     Test CRC C43070F2
     Copy CRC C43070F2
     Track not present in AccurateRip database
     Copy OK
Track  3
     Filename M:\Upload\Suicide Commando - God Is In The Rain (2010) - FLAC\03 - Infliction of Pain.wav
     Pre-gap length  0:00:01.00
     Peak level 93.5 %
     Track quality 100.0 %
     Test CRC 6239998D
     Copy CRC 6239998D
     Track not present in AccurateRip database
     Copy OK
Track  4
     Filename M:\Upload\Suicide Commando - God Is In The Rain (2010) - FLAC\04 - God Is in the Rain (-wumpscut- Remix).wav
     Pre-gap length  0:00:01.00
     Peak level 99.9 %
     Track quality 100.0 %
     Test CRC 8263D191
     Copy CRC 8263D191
     Track not present in AccurateRip database
     Copy OK
Track  5
     Filename M:\Upload\Suicide Commando - God Is In The Rain (2010) - FLAC\05 - God Is in the Rain (The Synthetic Dream Foundation Remix).wav
     Pre-gap length  0:00:01.00
     Peak level 100.0 %
     Track quality 100.0 %
     Test CRC C7ED3C18
     Copy CRC C7ED3C18
     Track not present in AccurateRip database
     Copy OK
Track  6
     Filename M:\Upload\Suicide Commando - God Is In The Rain (2010) - FLAC\06 - White Lines, White Lies (Previously Unreleased Demo Version - 1999).wav
     Pre-gap length  0:00:01.00
     Peak level 94.1 %
     Track quality 100.0 %
     Test CRC F485D6CA
     Copy CRC F485D6CA
     Track not present in AccurateRip database
     Copy OK
None of the tracks are present in the AccurateRip database
No errors occurred
End of status report
Код:
REM GENRE Industrial
REM DATE 2010
REM DISCID 3D063006
REM COMMENT "ExactAudioCopy v0.99pb5"
PERFORMER "Suicide Commando"
TITLE "God Is In The Rain"
FILE "Suicide Commando - God Is In The Rain (2010) - FLAC\01 - God Is in the Rain (Book of Lies V1.0).wav" WAVE
  TRACK 01 AUDIO
    TITLE "God Is in the Rain (Book of Lies V1.0)"
    PERFORMER "Suicide Commando"
    FLAGS DCP
    INDEX 01 00:00:00
  TRACK 02 AUDIO
    TITLE "God Is in the Rain (Book of Lies V2.0 - Club Mix)"
    PERFORMER "Suicide Commando"
    FLAGS DCP
    INDEX 00 03:57:23
FILE "Suicide Commando - God Is In The Rain (2010) - FLAC\02 - God Is in the Rain (Book of Lies V2.0 - Club Mix).wav" WAVE
    INDEX 01 00:00:00
  TRACK 03 AUDIO
    TITLE "Infliction of Pain"
    PERFORMER "Suicide Commando"
    FLAGS DCP
    INDEX 00 05:49:34
FILE "Suicide Commando - God Is In The Rain (2010) - FLAC\03 - Infliction of Pain.wav" WAVE
    INDEX 01 00:00:00
  TRACK 04 AUDIO
    TITLE "God Is in the Rain (:wumpscut: Remix)"
    PERFORMER "Suicide Commando"
    FLAGS DCP
    INDEX 00 02:36:12
FILE "Suicide Commando - God Is In The Rain (2010) - FLAC\04 - God Is in the Rain (-wumpscut- Remix).wav" WAVE
    INDEX 01 00:00:00
  TRACK 05 AUDIO
    TITLE "God Is in the Rain (The Synthetic Dream Foundation Remix)"
    PERFORMER "Suicide Commando"
    FLAGS DCP
    INDEX 00 05:16:65
FILE "Suicide Commando - God Is In The Rain (2010) - FLAC\05 - God Is in the Rain (The Synthetic Dream Foundation Remix).wav" WAVE
    INDEX 01 00:00:00
  TRACK 06 AUDIO
    TITLE "White Lines, White Lies (Previously Unreleased Demo Version - 1999)"
    PERFORMER "Suicide Commando"
    FLAGS DCP
    INDEX 00 04:16:59
FILE "Suicide Commando - God Is In The Rain (2010) - FLAC\06 - White Lines, White Lies (Previously Unreleased Demo Version - 1999).wav" WAVE
    INDEX 01 00:00:00
Код:
AUDIOCHECKER v2.0 beta (build 457) - by Dester - opdester@freemail.hu
~~~~~~~~~~~~~~~~~~~~~~~~~~~~~~~~~~
Started at: пятница, 01. 10. 2010. - 15:08.40
6 files found
1 -===- E:\Suicide Commando - God Is In The Rain (2010) - FLAC\01 - God Is in the Rain (Book of Lies V1.0).flac
  Extracted successfully
  Conclusion: this track is MPEG with probability 95%
  Tempfile successfully deleted.
2 -===- E:\Suicide Commando - God Is In The Rain (2010) - FLAC\02 - God Is in the Rain (Book of Lies V2.0 - Club Mix).flac
  Extracted successfully
  Conclusion: this track is MPEG with probability 73%
  Tempfile successfully deleted.
3 -===- E:\Suicide Commando - God Is In The Rain (2010) - FLAC\03 - Infliction of Pain.flac
  Extracted successfully
  Conclusion: this track is CDDA with probability 100%
  Tempfile successfully deleted.
4 -===- E:\Suicide Commando - God Is In The Rain (2010) - FLAC\04 - God Is in the Rain (-wumpscut- Remix).flac
  Extracted successfully
  Conclusion: this track is CDDA with probability 100%
  Tempfile successfully deleted.
5 -===- E:\Suicide Commando - God Is In The Rain (2010) - FLAC\05 - God Is in the Rain (The Synthetic Dream Foundation Remix).flac
  Extracted successfully
  Conclusion: this track is CDDA with probability 100%
  Tempfile successfully deleted.
6 -===- E:\Suicide Commando - God Is In The Rain (2010) - FLAC\06 - White Lines, White Lies (Previously Unreleased Demo Version - 1999).flac
  Extracted successfully
  Conclusion: this track is MPEG with probability 73%
  Tempfile successfully deleted.
Finished at: пятница, 01. 10. 2010. - 15:10.33 (operation time: 0:01.52)
Правила, инструкции, FAQ!!!
Торрент  Добавлен [26 июн 2020, 20:39] Скачать торрент Магнет ссылка
Скачать торрент
[ Размер 15.17 КБ / Просмотров 9 ]

Статус
Проверен 
 
Размер  180.15 МБ
Приватный: Нет (DHT включён)
.torrent скачан  0
 


     Отправить личное сообщение
   
Страница 1 из 1
Показать сообщения за:  Поле сортировки  
Начать новую тему Ответить на тему


Сейчас этот форум просматривают: нет зарегистрированных пользователей и гости: 0


Вы не можете начинать темы
Вы не можете отвечать на сообщения
Вы не можете редактировать свои сообщения
Вы не можете удалять свои сообщения
Вы не можете добавлять вложения

Перейти:  
cron