Начать новую тему Ответить на тему
Статистика раздачи
Размер: 500.55 МБ | Добавлен: 26 июн 2020, 17:10 | Скачали: 0
Сидеров: 0  [0 байт/сек]    Личеров: 0  [0 байт/сек]
Пред. тема | След. тема 

Автор
Сообщение

СообщениеДобавлено: 26 июн 2020, 17:10 

Ответить с цитатой 

Nexus VI
Apocalypse

Жанр: EBM / Indusrtrial / IDM / Dark Electro
Страна-производитель диска: Hungary
Год издания: 2010
Издатель (лейбл): Advoxya
Номер по каталогу: ad-08-cd
Страна: Russia
Аудиокодек: FLAC (*.flac)
Тип рипа: image+.cue
Битрейт аудио: lossless
Продолжительность: 1hour 10min 03sec
Источник (релизер): Физический носитель (Собственный рип с оригинального CD).
Наличие сканов в содержимом раздачи: нет
Треклист:
01. Agony
02. Dr. Evil
03. Biomechanical
04. Made Of Fear
05. Ressurection
06. Face To Face
07. Forgotten Hero
08. City Of Winds (Kali-Yuga Cover)
09. Aesthetics Of Happiness
10. Totalienkrieg (Feat. Vladimir Harkonnen)
11. Cold Dream
12. Agony (Purple Fog Side Remix)
13. Biomechanical (Mulphia Remix)
14. Made Of Fear (Easy Darkness Mix By Virgin Fix)
15. Epilogue
Код:
Exact Audio Copy V1.0 beta 3 from 29. August 2011
Отчёт EAC об извлечении, выполненном 13. августа 2012, 22:46
Unknown Artist / Unknown Title
Дисковод: TSSTcorpCDDVDW TS-L633C   Adapter: 0  ID: 0
Режим чтения                 : Достоверность
Использование точного потока : Да
Отключение кэша аудио        : Да
Использование указателей C2  : Нет
Коррекция смещения при чтении                     : 6
Способность читать области Lead-in и Lead-out     : Нет
Заполнение пропущенных сэмплов тишиной            : Да
Удаление блоков с тишиной в начале и конце        : Нет
При вычислениях CRC использовались нулевые сэмплы : Да
Нормализовать до                                  : 98 %
Интерфейс                                         : Встроенный Win32-интерфейс для Win NT/2000
Выходной формат          : Пользовательский кодировщик
Выбранный битрейт        : 128 kBit/s
Качество                 : Высокий
Добавление ID3-тега      : Нет
Утилита сжатия           : C:\Program Files\FLAC\flac.exe
Дополнительные параметры : -V -8 -T "Date=%year%" -T "Genre=%genre%" %source%
TOC извлечённого CD
     Трек |   Старт  | Длительность | Начальный сектор | Конечный сектор
    ---------------------------------------------------------------------
       1  |  0:00.00 |    4:58.33   |           0      |      22382
       2  |  4:58.33 |    4:47.74   |       22383      |      43981
       3  |  9:46.32 |    3:59.43   |       43982      |      61949
       4  | 13:46.00 |    4:13.00   |       61950      |      80924
       5  | 17:59.00 |    4:17.23   |       80925      |     100222
       6  | 22:16.23 |    4:00.46   |      100223      |     118268
       7  | 26:16.69 |    3:53.06   |      118269      |     135749
       8  | 30:10.00 |    5:11.00   |      135750      |     159074
       9  | 35:21.00 |    5:30.61   |      159075      |     183885
      10  | 40:51.61 |    4:42.17   |      183886      |     205052
      11  | 45:34.03 |    4:28.72   |      205053      |     225224
      12  | 50:03.00 |    4:57.16   |      225225      |     247515
      13  | 55:00.16 |    4:42.47   |      247516      |     268712
      14  | 59:42.63 |    6:13.13   |      268713      |     296700
      15  | 65:56.01 |    4:05.41   |      296701      |     315116
Характеристики диапазона извлечения и сообщения об ошибках
Выбранный диапазон
     Имя файла C:\Users\SODOM\Desktop\Unknown Artist - Unknown Title.wav
     Пиковый уровень 97.7 %
     Скорость извлечения 3.7 X
     Качество диапазона 100.0 %
     CRC теста 40EA0B4F
     CRC копии 40EA0B4F
     Копирование... OK
Ошибок не произошло
AccurateRip: сводка
Трек  1  отсутствует в базе данных
Трек  2  отсутствует в базе данных
Трек  3  отсутствует в базе данных
Трек  4  отсутствует в базе данных
Трек  5  отсутствует в базе данных
Трек  6  отсутствует в базе данных
Трек  7  отсутствует в базе данных
Трек  8  отсутствует в базе данных
Трек  9  отсутствует в базе данных
Трек 10  отсутствует в базе данных
Трек 11  отсутствует в базе данных
Трек 12  отсутствует в базе данных
Трек 13  отсутствует в базе данных
Трек 14  отсутствует в базе данных
Трек 15  отсутствует в базе данных
Ни одного трека нет в базе AccurateRip
Конец отчёта
==== Контрольная сумма отчёта E656E09F28891C9B98DFCCBEAF60546D6A2A8F52B60327D8829EB7DB00E83146 ====
Правила, инструкции, FAQ!!!
Торрент  Добавлен [26 июн 2020, 17:10] Скачать торрент Магнет ссылка
Скачать торрент
[ Размер 20.25 КБ / Просмотров 2 ]

Статус
Проверен 
 
Размер  500.55 МБ
Приватный: Нет (DHT включён)
.torrent скачан  0
 


     Отправить личное сообщение
   
Страница 1 из 1
Показать сообщения за:  Поле сортировки  
Начать новую тему Ответить на тему


Сейчас этот форум просматривают: нет зарегистрированных пользователей и гости: 0


Вы не можете начинать темы
Вы не можете отвечать на сообщения
Вы не можете редактировать свои сообщения
Вы не можете удалять свои сообщения
Вы не можете добавлять вложения

Перейти:  
cron