Начать новую тему Ответить на тему
Статистика раздачи
Размер: 304.66 МБ | Добавлен: 26 июн 2020, 20:42 | Скачали: 0
Сидеров: 0  [0 байт/сек]    Личеров: 0  [0 байт/сек]
Пред. тема | След. тема 

Автор
Сообщение

СообщениеДобавлено: 26 июн 2020, 20:42 

Ответить с цитатой 

IMAGE TRANSMISSION - Regurgitation lossless
Жанр: ebm
Год выпуска диска: 1995
Производитель диска: Germany
Аудио кодек: FLAC
Тип рипа: image+.cue
Битрейт аудио: lossless
Продолжительность: 43:23
Трэклист:
1. Agony Of Ecstacy 3:56
2. Conflict 4:37
3. Forced To Fear 4:18
4. TV Curse 5:52
5. The Killer Instinct 5:11
6. Exploitation 4:10
7. Exploitation (Bounce mix) 3:12
8. Nowhere Land 4:06
9. Terrorground 3:53
10. Blood O.R.TNI 4:08
--------
43:23
Exact Audio Copy V0.99 prebeta 4 from 23. January 2008
EAC extraction logfile from 28. June 2010, 21:47
Image Transmission / Regurgitation
Used drive : TEAC CD-W552G Adapter: 0 ID: 0
Read mode : Secure
Utilize accurate stream : Yes
Defeat audio cache : Yes
Make use of C2 pointers : No
Read offset correction : 6
Overread into Lead-In and Lead-Out : No
Fill up missing offset samples with silence : Yes
Delete leading and trailing silent blocks : No
Null samples used in CRC calculations : Yes
Used interface : Native Win32 interface for Win NT & 2000
Used output format : Internal WAV Routines
Sample format : 44.100 Hz; 16 Bit; Stereo
TOC of the extracted CD
Track | Start | Length | Start sector | End sector
---------------------------------------------------------
1 | 0:00.00 | 3:56.23 | 0 | 17722
2 | 3:56.23 | 4:37.37 | 17723 | 38534
3 | 8:33.60 | 4:18.43 | 38535 | 57927
4 | 12:52.28 | 5:52.55 | 57928 | 84382
5 | 18:45.08 | 5:11.63 | 84383 | 107770
6 | 23:56.71 | 4:10.03 | 107771 | 126523
7 | 28:06.74 | 3:12.74 | 126524 | 140997
8 | 31:19.73 | 4:06.20 | 140998 | 159467
9 | 35:26.18 | 3:53.22 | 159468 | 176964
10 | 39:19.40 | 4:08.59 | 176965 | 195623
Range status and errors
Selected range
Filename E:\WAV\IMAGE TRANSMISSION-1999-Regurgitation\Image Transmission - Regurgitation.wav
Peak level 98.7 %
Range quality 100.0 %
Test CRC 9AE276F4
Copy CRC 9AE276F4
Copy OK
No errors occurred
End of status report
REM GENRE "ebm, industrial"
REM DATE 1999
REM DISCID 890A300A
REM COMMENT "ExactAudioCopy v0.99pb4"
PERFORMER "Image Transmission"
TITLE "Regurgitation"
FILE "Image Transmission - Regurgitation.wav" WAVE
TRACK 01 AUDIO
TITLE "Agony Of Ecstacy"
PERFORMER "Image Transmission"
FLAGS DCP
INDEX 01 00:00:00
TRACK 02 AUDIO
TITLE "Conflict"
PERFORMER "Image Transmission"
FLAGS DCP
INDEX 01 03:56:23
TRACK 03 AUDIO
TITLE "Forced To Fear"
PERFORMER "Image Transmission"
FLAGS DCP
INDEX 01 08:33:60
TRACK 04 AUDIO
TITLE "TV Curse"
PERFORMER "Image Transmission"
FLAGS DCP
INDEX 01 12:52:28
TRACK 05 AUDIO
TITLE "The Killer Instinct"
PERFORMER "Image Transmission"
FLAGS DCP
INDEX 01 18:45:08
TRACK 06 AUDIO
TITLE "Exploitation"
PERFORMER "Image Transmission"
FLAGS DCP
INDEX 01 23:56:71
TRACK 07 AUDIO
TITLE "Exploitation (Bounce mix)"
PERFORMER "Image Transmission"
FLAGS DCP
INDEX 01 28:06:74
TRACK 08 AUDIO
TITLE "Nowhere Land"
PERFORMER "Image Transmission"
FLAGS DCP
INDEX 01 31:19:73
TRACK 09 AUDIO
TITLE "Terrorground"
PERFORMER "Image Transmission"
FLAGS DCP
INDEX 01 35:26:18
TRACK 10 AUDIO
TITLE "Blood O.R.TNI"
PERFORMER "Image Transmission"
FLAGS DCP
INDEX 01 39:19:40
Правила, инструкции, FAQ!!!
Торрент  Добавлен [26 июн 2020, 20:42] Скачать торрент Магнет ссылка
Скачать торрент
[ Размер 12.79 КБ / Просмотров 2 ]

Статус
Проверен 
 
Размер  304.66 МБ
Приватный: Нет (DHT включён)
.torrent скачан  0
 


     Отправить личное сообщение
   
Страница 1 из 1
Показать сообщения за:  Поле сортировки  
Начать новую тему Ответить на тему


Сейчас этот форум просматривают: нет зарегистрированных пользователей и гости: 0


Вы не можете начинать темы
Вы не можете отвечать на сообщения
Вы не можете редактировать свои сообщения
Вы не можете удалять свои сообщения
Вы не можете добавлять вложения

Перейти:  
cron