Начать новую тему Ответить на тему
Статистика раздачи
Размер: 433.31 МБ | Добавлен: 26 июн 2020, 20:21 | Скачали: 0
Сидеров: 1  [0 байт/сек]    Личеров: 0  [0 байт/сек]
Пред. тема | След. тема 

Автор
Сообщение

СообщениеДобавлено: 26 июн 2020, 20:21 

Ответить с цитатой 

Auto Aggression - Artefacts
Жанр: EBM, IDM, Electro
Страна-производитель диска: Russia
Год издания диска: 2007
Издатель (лейбл): Soyuz Music, Dependent Records
Номер по каталогу: mind 118
Страна: Germany
Аудио кодек: FLAC (*.flac)
Тип рипа: image+.cue
Битрейт аудио: lossless
Продолжительность: 01:02:43
Источник (релизер): CD, Собственный рип DMMANIAC
Наличие сканов в содержимом раздачи: да, PNG 300dpi

Особая благодарность DMMANIAС за помощь в оформлении релиза!
01. Meta 4:19
02. R-A 5:38
03. Shallow Things 5:03
04. Blame 5:58
05. Mechanical Sun 2:36
06. The Sky Is Not Yours 4:13
07. Speed 4:40
08. Words 5:59
09. A Thousand Fires 6:33
10. Scape 1 7:03
11. Digital Woods 10:36
Код:
Exact Audio Copy V0.99 prebeta 4 from 23. January 2008
Отчёт EAC об извлечении, выполненном 2. апреля 2011, 0:31
Autoaggression / Artefacts
Дисковод: Optiarc DVD RW AD-7243S   Adapter: 1  ID: 1
Режим чтения                 : Достоверность
Использование точного потока : Да
Отключение кэша аудио        : Да
Использование указателей C2  : Нет
Коррекция смещения при чтении                     : 48
Способность читать области Lead-in и Lead-out     : Нет
Заполнение пропущенных сэмплов тишиной            : Да
Удаление блоков с тишиной в начале и конце        : Нет
При вычислениях CRC использовались нулевые сэмплы : Да
Интерфейс                                         : Встроенный Win32-интерфейс для Win NT/2000
Выходной формат : Внутренние WAV-операции
Формат сэмплов  : 44.100 Гц; 16 бит; стерео
TOC извлечённого CD
     Трек |   Старт  | Длительность | Начальный сектор | Конечный сектор
    ---------------------------------------------------------------------
       1  |  0:00.00 |    4:19.53   |           0      |      19477
       2  |  4:19.53 |    5:38.03   |       19478      |      44830
       3  |  9:57.56 |    5:03.74   |       44831      |      67629
       4  | 15:01.55 |    5:58.69   |       67630      |      94548
       5  | 21:00.49 |    2:36.24   |       94549      |     106272
       6  | 23:36.73 |    4:13.00   |      106273      |     125247
       7  | 27:49.73 |    4:40.43   |      125248      |     146290
       8  | 32:30.41 |    5:59.61   |      146291      |     173276
       9  | 38:30.27 |    6:33.57   |      173277      |     202808
      10  | 45:04.09 |    7:03.55   |      202809      |     234588
      11  | 52:07.64 |   10:36.09   |      234589      |     282297
Характеристики диапазона извлечения и сообщения об ошибках
Выбранный диапазон
     Имя файла D:\Autoaggression - Artefacts.wav
     Пиковый уровень 98.7 %
     Качество диапазона 99.9 %
     CRC теста 86D996D8
     CRC копии 86D996D8
     Копирование... OK
Ошибок не произошло
AccurateRip: сводка
Трек  1  точность не определена (достоверность 1)  [CCED6D00], AccurateRip вернул [BF771D10]
Трек  2  точность не определена (достоверность 1)  [D4CD4076], AccurateRip вернул [0750127E]
Трек  3  точность не определена (достоверность 1)  [A80184AA], AccurateRip вернул [90353AE2]
Трек  4  точность не определена (достоверность 1)  [C3456EB3], AccurateRip вернул [F70E2983]
Трек  5  точность не определена (достоверность 1)  [1F5764A1], AccurateRip вернул [15680249]
Трек  6  точность не определена (достоверность 1)  [DEE66626], AccurateRip вернул [01BC25EE]
Трек  7  точность не определена (достоверность 1)  [6BD591EF], AccurateRip вернул [FD3F4AA7]
Трек  8  точность не определена (достоверность 1)  [38FC1D08], AccurateRip вернул [F8A4F160]
Трек  9  точность не определена (достоверность 1)  [F9206399], AccurateRip вернул [2BE0EA91]
Трек 10  точность не определена (достоверность 1)  [A4CAE52C], AccurateRip вернул [26E5517C]
Трек 11  точность не определена (достоверность 1)  [D90F5B86], AccurateRip вернул [260F404E]
Ни один трек не прошёл проверки на точность
В вашей базе может быть иной вариант штамповки диска
Конец отчёта
Код:
REM GENRE Industrial
REM DATE 2007
REM DISCID 8D0EB30B
REM COMMENT "ExactAudioCopy v0.99pb4"
PERFORMER "Autoaggression"
TITLE "Artefacts"
FILE "Autoaggression - Artefacts.flac" WAVE
  TRACK 01 AUDIO
    TITLE "Meta"
    PERFORMER "Autoaggression"
    ISRC DEP510711801
    INDEX 01 00:00:00
  TRACK 02 AUDIO
    TITLE "R-A"
    PERFORMER "Autoaggression"
    ISRC DEP510711802
    INDEX 00 04:18:72
    INDEX 01 04:19:53
  TRACK 03 AUDIO
    TITLE "Shallow Things"
    PERFORMER "Autoaggression"
    ISRC DEP510711803
    INDEX 00 09:56:50
    INDEX 01 09:57:56
  TRACK 04 AUDIO
    TITLE "Blame"
    PERFORMER "Autoaggression"
    ISRC DEP510711804
    INDEX 00 15:01:20
    INDEX 01 15:01:55
  TRACK 05 AUDIO
    TITLE "Mechanical Sun"
    PERFORMER "Autoaggression"
    ISRC DEP510711805
    INDEX 00 20:59:36
    INDEX 01 21:00:49
  TRACK 06 AUDIO
    TITLE "The Sky Is Not Yours"
    PERFORMER "Autoaggression"
    ISRC DEP510711806
    INDEX 00 23:35:68
    INDEX 01 23:36:73
  TRACK 07 AUDIO
    TITLE "Speed"
    PERFORMER "Autoaggression"
    ISRC DEP510711807
    INDEX 00 27:49:35
    INDEX 01 27:49:73
  TRACK 08 AUDIO
    TITLE "Words"
    PERFORMER "Autoaggression"
    ISRC DEP510711808
    INDEX 00 32:28:02
    INDEX 01 32:30:41
  TRACK 09 AUDIO
    TITLE "A Thousand Fires"
    PERFORMER "Autoaggression"
    ISRC DEP510711809
    INDEX 00 38:29:35
    INDEX 01 38:30:27
  TRACK 10 AUDIO
    TITLE "Digital Woods"
    PERFORMER "Autoaggression"
    ISRC DEP510711810
    INDEX 00 45:02:31
    INDEX 01 45:04:09
  TRACK 11 AUDIO
    TITLE "Scape1"
    PERFORMER "Autoaggression"
    ISRC DEP510711811
    INDEX 00 52:06:62
    INDEX 01 52:07:64
   
Код:
AUDIOCHECKER v2.0 beta (build 457) - by Dester - opdester@freemail.hu
~~~~~~~~~~~~~~~~~~~~~~~~~~~~~~~~~~
-=== DO NOT EDIT THIS FILE! ===-
Path: ...\2007 =Artefacts=
1 -=- Autoaggression - Artefacts.flac -=- CDDA (100%)
98029588
Label: Soyuz Music, Dependent Records
Catalog#: mind 118, mind 118
Format: CD, Album
Country: Russia
Released: 2007
Genre: Electronic
Style: EBM, IDM, Electro, Noise, Ambient
Notes
Released under the license from Dependent.
For sale in Russia and CIS countries only.
Barcode and Other Identifiers
Barcode: 4 601250 349558
Matrix Number: mind118
Other (Mastering Code): IFPI LW80
Other (Mould Code): IFPI ACH03
Правила, инструкции, FAQ!!!
Торрент  Добавлен [26 июн 2020, 20:21] Скачать торрент Магнет ссылка
Скачать торрент
[ Размер 18.04 КБ / Просмотров 9 ]

Статус
Проверен 
 
Размер  433.31 МБ
Приватный: Нет (DHT включён)
.torrent скачан  0
 


     Отправить личное сообщение
   
Страница 1 из 1
Показать сообщения за:  Поле сортировки  
Начать новую тему Ответить на тему


Сейчас этот форум просматривают: нет зарегистрированных пользователей и гости: 0


Вы не можете начинать темы
Вы не можете отвечать на сообщения
Вы не можете редактировать свои сообщения
Вы не можете удалять свои сообщения
Вы не можете добавлять вложения

Перейти:  
cron