Начать новую тему Ответить на тему
Статистика раздачи
Размер: 381.52 МБ | Добавлен: 26 июн 2020, 16:48 | Скачали: 0
Сидеров: 0  [0 байт/сек]    Личеров: 0  [0 байт/сек]
Пред. тема | След. тема 

Автор
Сообщение

СообщениеДобавлено: 26 июн 2020, 16:48 

Ответить с цитатой 

Contrast - Antidote
Жанр: EBM / gothic wave
Год выпуска диска: 2009
Производитель диска: (Triple HandShake Records, Germany)
Аудио кодек: FLAC
Тип рипа: image+.cue
Битрейт аудио: lossless
Продолжительность: 52:47.25
Трэклист:
01. Dare [4:05]
02. Insecure [4:38]
03. Chained To The Past [5:25]
04. Antidote [3:31]
05. End Of Pleasure [2:23]
06. Incisions [4:01]
07. Follow The Leaders [4:45]
08. Encrypted Anger [5:58]
09. Eye Of The Storm [4:25]
10. Devastation [3:00]
11. Testify [4:57]
12. Senseless [5:41]
Источник: Физический носитель
Код:
Exact Audio Copy V0.99 prebeta 5 from 4. May 2009
Отчёт EAC об извлечении, выполненном 7. марта 2010, 12:33
Contrast / Antidote
Дисковод: Optiarc DVD RW AD-7173A   Adapter: 0  ID: 0
Режим чтения                 : Достоверность
Использование точного потока : Да
Отключение кэша аудио        : Да
Использование указателей C2  : Нет
Коррекция смещения при чтении                     : 48
Способность читать области Lead-in и Lead-out     : Нет
Заполнение пропущенных сэмплов тишиной            : Да
Удаление блоков с тишиной в начале и конце        : Нет
При вычислениях CRC использовались нулевые сэмплы : Да
Интерфейс                                         : Установленный внешний ASPI-интерфейс
Выходной формат          : Пользовательский кодировщик
Выбранный битрейт        : 1024 kBit/s
Качество                 : Высокий
Добавление ID3-тэга      : Нет
Утилита сжатия           : C:\Program Files\Exact Audio Copy\Flac\flac.exe
Дополнительные параметры : -6 -V -T "ARTIST=%a" -T "TITLE=%t" -T "ALBUM=%g" -T "DATE=%y" -T "TRACKNUMBER=%n" -T "GENRE=%m" -T "COMMENT=%e" %s -o %d
TOC извлечённого CD
     Трек |   Старт  | Длительность | Начальный сектор | Конечный сектор
    ---------------------------------------------------------------------
       1  |  0:00.00 |    4:04.48   |           0      |      18347
       2  |  4:04.48 |    4:37.58   |       18348      |      39180
       3  |  8:42.31 |    5:24.64   |       39181      |      63544
       4  | 14:07.20 |    3:30.42   |       63545      |      79336
       5  | 17:37.62 |    2:23.20   |       79337      |      90081
       6  | 20:01.07 |    4:01.20   |       90082      |     108176
       7  | 24:02.27 |    4:44.40   |      108177      |     129516
       8  | 28:46.67 |    5:58.11   |      129517      |     156377
       9  | 34:45.03 |    4:24.45   |      156378      |     176222
      10  | 39:09.48 |    2:59.40   |      176223      |     189687
      11  | 42:09.13 |    4:56.52   |      189688      |     211939
      12  | 47:05.65 |    5:41.35   |      211940      |     237549
Характеристики диапазона извлечения и сообщения об ошибках
Выбранный диапазон
     Имя файла H:\СКАЧКА\FLAC\1 TORRENT\Contrast - Antidote.wav
     Пиковый уровень 95.5 %
     Качество диапазона 99.9 %
     CRC теста 5FD7B740
     CRC копии 5FD7B740
     Копирование... OK
Ошибок не произошло
AccurateRip: сводка
Трек  1  нет в базе данных
Трек  2  нет в базе данных
Трек  3  нет в базе данных
Трек  4  нет в базе данных
Трек  5  нет в базе данных
Трек  6  нет в базе данных
Трек  7  нет в базе данных
Трек  8  нет в базе данных
Трек  9  нет в базе данных
Трек 10  нет в базе данных
Трек 11  нет в базе данных
Трек 12  нет в базе данных
Ни одного трека нет в базе AccurateRip
Конец отчёта
Хочешь скачать, но не можешь из-за отсутствия сидов - пиши в личку!
Правила, инструкции, FAQ!!!
Торрент  Добавлен [26 июн 2020, 16:48] Скачать торрент Магнет ссылка
Скачать торрент
[ Размер 15.8 КБ / Просмотров 3 ]

Статус
Проверен 
 
Размер  381.52 МБ
Приватный: Нет (DHT включён)
.torrent скачан  0
 


     Отправить личное сообщение
   
Страница 1 из 1
Показать сообщения за:  Поле сортировки  
Начать новую тему Ответить на тему


Сейчас этот форум просматривают: нет зарегистрированных пользователей и гости: 0


Вы не можете начинать темы
Вы не можете отвечать на сообщения
Вы не можете редактировать свои сообщения
Вы не можете удалять свои сообщения
Вы не можете добавлять вложения

Перейти:  
cron