Начать новую тему Ответить на тему
Статистика раздачи
Размер: 547.14 МБ | Добавлен: 26 июн 2020, 16:57 | Скачали: 0
Сидеров: 0  [0 байт/сек]    Личеров: 0  [0 байт/сек]
Пред. тема | След. тема 

Автор
Сообщение

СообщениеДобавлено: 26 июн 2020, 16:57 

Ответить с цитатой 

The Eternal Afflict / Ion [Ltd]
Жанр: EBM, Gothic
Страна-производитель диска: Germany
Год издания диска: 2009
Издатель (лейбл): Afflict:Me Records
Номер по каталогу: AMR 2001
Страна: Germany
Аудио кодек: FLAC (*.flac)
Тип рипа: image+.cue
Битрейт аудио: lossless
Продолжительность: CD1 - 1:00:21, CD2 - 18:33
Источник (релизер): Audio CD
Наличие сканов в содержимом раздачи: нет
Треклист:
01. rex deus
02. hatelove
03. what well be tomorrow
04. 23 seconds of fame
05. thorn
06. six million ways to die
07. china syndrome
08. still run red
09. eht lanrere raw
10. suicide kingdom
11. lost
12. who cries first
13. drama for one
Код:
Exact Audio Copy V0.99 prebeta 5 from 4. May 2009
Отчёт EAC об извлечении, выполненном 4. февраля 2011, 20:39
The Eternal Afflict / Ion
Дисковод: _NEC    DVD_RW ND-4550A   Adapter: 0  ID: 2
Режим чтения                 : Достоверность
Использование точного потока : Да
Отключение кэша аудио        : Да
Использование указателей C2  : Нет
Коррекция смещения при чтении                     : 48
Способность читать области Lead-in и Lead-out     : Нет
Заполнение пропущенных сэмплов тишиной            : Да
Удаление блоков с тишиной в начале и конце        : Нет
При вычислениях CRC использовались нулевые сэмплы : Да
Интерфейс                                         : Встроенный Win32-интерфейс для Win NT/2000
Выходной формат : Внутренние WAV-операции
Формат сэмплов  : 44.100 Гц; 16 бит; стерео
TOC извлечённого CD
     Трек |   Старт  | Длительность | Начальный сектор | Конечный сектор
    ---------------------------------------------------------------------
       1  |  0:00.00 |    2:56.74   |           0      |      13273
       2  |  2:56.74 |    4:31.50   |       13274      |      33648
       3  |  7:28.49 |    3:21.13   |       33649      |      48736
       4  | 10:49.62 |    4:27.60   |       48737      |      68821
       5  | 15:17.47 |    4:15.49   |       68822      |      87995
       6  | 19:33.21 |    4:08.24   |       87996      |     106619
       7  | 23:41.45 |    4:38.56   |      106620      |     127525
       8  | 28:20.26 |    4:06.08   |      127526      |     145983
       9  | 32:26.34 |    7:54.46   |      145984      |     181579
      10  | 40:21.05 |    5:43.68   |      181580      |     207372
      11  | 46:04.73 |    4:33.45   |      207373      |     227892
      12  | 50:38.43 |    3:56.56   |      227893      |     245648
      13  | 54:35.24 |    5:46.13   |      245649      |     271611
Характеристики диапазона извлечения и сообщения об ошибках
Выбранный диапазон
     Имя файла D:\Music\Eternal Afflict - Ion (2009)\CD1\The Eternal Afflict - Ion.wav
     Пиковый уровень 99.4 %
     Качество диапазона 99.9 %
     CRC теста 3F791E68
     CRC копии 3F791E68
     Копирование... OK
Ошибок не произошло
AccurateRip: сводка
Трек  1  точное извлечение (доверие 1)  [9E3191A7]
Трек  2  точное извлечение (доверие 1)  [7DBAB2B4]
Трек  3  точное извлечение (доверие 1)  [18B6475E]
Трек  4  точное извлечение (доверие 1)  [36723010]
Трек  5  точное извлечение (доверие 1)  [D7BA513D]
Трек  6  точное извлечение (доверие 1)  [FBFB3C81]
Трек  7  точное извлечение (доверие 1)  [7A4033FB]
Трек  8  точное извлечение (доверие 1)  [994F9575]
Трек  9  точное извлечение (доверие 1)  [544BEA46]
Трек 10  точное извлечение (доверие 1)  [1DC96ECE]
Трек 11  точное извлечение (доверие 1)  [D23A027C]
Трек 12  точное извлечение (доверие 1)  [D2FED02F]
Трек 13  точное извлечение (доверие 1)  [2D8317E8]
Все треки извлечены точно
Конец отчёта
Код:
REM GENRE Gothic
REM DATE 2009
REM DISCID AC0E250D
REM COMMENT "ExactAudioCopy v0.99pb5"
PERFORMER "The Eternal Afflict"
TITLE "Ion"
FILE "The Eternal Afflict - Ion.wav" WAVE
  TRACK 01 AUDIO
    TITLE "Rex Deus"
    PERFORMER "The Eternal Afflict"
    INDEX 01 00:00:00
  TRACK 02 AUDIO
    TITLE "Hatelove"
    PERFORMER "The Eternal Afflict"
    INDEX 00 02:54:74
    INDEX 01 02:56:74
  TRACK 03 AUDIO
    TITLE "What (We)`ll Be Tomorrow"
    PERFORMER "The Eternal Afflict"
    INDEX 00 07:26:49
    INDEX 01 07:28:49
  TRACK 04 AUDIO
    TITLE "23 Seconds Of Fame"
    PERFORMER "The Eternal Afflict"
    INDEX 00 10:47:62
    INDEX 01 10:49:62
  TRACK 05 AUDIO
    TITLE "Thorn"
    PERFORMER "The Eternal Afflict"
    INDEX 00 15:15:47
    INDEX 01 15:17:47
  TRACK 06 AUDIO
    TITLE "Six Million Ways To Die"
    PERFORMER "The Eternal Afflict"
    INDEX 00 19:31:21
    INDEX 01 19:33:21
  TRACK 07 AUDIO
    TITLE "China Syndrom"
    PERFORMER "The Eternal Afflict"
    INDEX 00 23:39:45
    INDEX 01 23:41:45
  TRACK 08 AUDIO
    TITLE "Still Run Red"
    PERFORMER "The Eternal Afflict"
    INDEX 00 28:18:26
    INDEX 01 28:20:26
  TRACK 09 AUDIO
    TITLE "Eht Lanrete Raw"
    PERFORMER "The Eternal Afflict"
    INDEX 00 32:24:34
    INDEX 01 32:26:34
  TRACK 10 AUDIO
    TITLE "Suicide Kingdom"
    PERFORMER "The Eternal Afflict"
    INDEX 00 40:19:05
    INDEX 01 40:21:05
  TRACK 11 AUDIO
    TITLE "Lost"
    PERFORMER "The Eternal Afflict"
    INDEX 00 46:02:73
    INDEX 01 46:04:73
  TRACK 12 AUDIO
    TITLE "Who Cries First"
    PERFORMER "The Eternal Afflict"
    INDEX 00 50:36:43
    INDEX 01 50:38:43
  TRACK 13 AUDIO
    TITLE "Drama For One"
    PERFORMER "The Eternal Afflict"
    INDEX 00 54:33:24
    INDEX 01 54:35:24
Код:
Started at: пятница, 04. 02. 2011. - 21:01.58
1 file found
1 -===- D:\Music\Eternal Afflict - Ion (2009)\CD1\The Eternal Afflict - Ion.wav
  Conclusion: this track is CDDA with probability 100%
Finished at: пятница, 04. 02. 2011. - 21:08.42 (operation time: 0:06.44)
Треклист:
01. suicide kingdom (remixed by feindflug)
02. riot in cellblock 666 (remixed by regenerator)
03. like a v8 (unreleased track 1998)
04. rise and fall (instrumental)
Exact Audio Copy V0.99 prebeta 5 from 4. May 2009
Отчёт EAC об извлечении, выполненном 4. февраля 2011, 21:00
Eternal Afflict / Ion 2nd (Limited Bonus CD)
Дисковод: _NEC DVD_RW ND-4550A Adapter: 0 ID: 2
Режим чтения : Достоверность
Использование точного потока : Да
Отключение кэша аудио : Да
Использование указателей C2 : Нет
Коррекция смещения при чтении : 48
Способность читать области Lead-in и Lead-out : Нет
Заполнение пропущенных сэмплов тишиной : Да
Удаление блоков с тишиной в начале и конце : Нет
При вычислениях CRC использовались нулевые сэмплы : Да
Интерфейс : Встроенный Win32-интерфейс для Win NT/2000
Выходной формат : Внутренние WAV-операции
Формат сэмплов : 44.100 Гц; 16 бит; стерео
TOC извлечённого CD
Трек | Старт | Длительность | Начальный сектор | Конечный сектор
---------------------------------------------------------------------
1 | 0:00.00 | 5:32.08 | 0 | 24907
2 | 5:32.08 | 4:53.68 | 24908 | 46950
3 | 10:26.01 | 4:24.61 | 46951 | 66811
4 | 14:50.62 | 3:42.07 | 66812 | 83468
Характеристики диапазона извлечения и сообщения об ошибках
Выбранный диапазон
Имя файла D:\Music\Eternal Afflict - Ion (2009)\CD2\Eternal Afflict - Ion 2nd (Limited Bonus CD).wav
Пиковый уровень 99.4 %
Качество диапазона 100.0 %
CRC теста 8A18EF11
CRC копии 8A18EF11
Копирование... OK
Ошибок не произошло
AccurateRip: сводка
Трек 1 точное извлечение (доверие 2) [6B98A673]
Трек 2 точное извлечение (доверие 2) [B2207905]
Трек 3 точное извлечение (доверие 2) [695EBFEF]
Трек 4 точное извлечение (доверие 2) [529B0FDE]
Все треки извлечены точно
Конец отчёта
REM GENRE "EBM, Gothic"
REM DATE 2009
REM DISCID 2F045804
REM COMMENT "ExactAudioCopy v0.99pb5"
PERFORMER "Eternal Afflict"
TITLE "Ion 2nd (Limited Bonus CD)"
FILE "Eternal Afflict - Ion 2nd (Limited Bonus CD).wav" WAVE
TRACK 01 AUDIO
TITLE "Track01"
PERFORMER "Eternal Afflict"
INDEX 01 00:00:00
TRACK 02 AUDIO
TITLE "Track02"
PERFORMER "Eternal Afflict"
INDEX 00 05:30:08
INDEX 01 05:32:08
TRACK 03 AUDIO
TITLE "Track03"
PERFORMER "Eternal Afflict"
INDEX 00 10:24:01
INDEX 01 10:26:01
TRACK 04 AUDIO
TITLE "Track04"
PERFORMER "Eternal Afflict"
INDEX 00 14:48:62
INDEX 01 14:50:62
Started at: пятница, 04. 02. 2011. - 21:10.27
1 file found
1 -===- D:\Music\Eternal Afflict - Ion (2009)\CD2\Eternal Afflict - Ion 2nd (Limited Bonus CD).wav
Conclusion: this track is CDDA with probability 100%
Finished at: пятница, 04. 02. 2011. - 21:12.23 (operation time: 0:01.56)
Правила, инструкции, FAQ!!!
Торрент  Добавлен [26 июн 2020, 16:57] Скачать торрент Магнет ссылка
Скачать торрент
[ Размер 11.65 КБ / Просмотров 4 ]

Статус
Проверен 
 
Размер  547.14 МБ
Приватный: Нет (DHT включён)
.torrent скачан  0
 


     Отправить личное сообщение
   
Страница 1 из 1
Показать сообщения за:  Поле сортировки  
Начать новую тему Ответить на тему


Сейчас этот форум просматривают: нет зарегистрированных пользователей и гости: 0


Вы не можете начинать темы
Вы не можете отвечать на сообщения
Вы не можете редактировать свои сообщения
Вы не можете удалять свои сообщения
Вы не можете добавлять вложения

Перейти:  
cron